<?xml version="1.0" standalone="no"?>
<!DOCTYPE svg PUBLIC "-//W3C//DTD SVG 1.1//EN" "http://www.w3.org/Graphics/SVG/1.1/DTD/svg11.dtd" >
<svg xmlns="http://www.w3.org/2000/svg" xmlns:xlink="http://www.w3.org/1999/xlink" version="1.1">
<metadata>
Created by FontForge 20201107 at Wed Apr 26 11:17:09 2023
 By 
Copyright 2019 The Darker Grotesque Project Authors (https://github.com/bettergui/DarkerGrotesque)
</metadata>
<defs>
<font id="DarkerGrotesque-Black" horiz-adv-x="474" >
  <font-face 
    font-family="Darker Grotesque Black"
    font-weight="900"
    font-stretch="normal"
    units-per-em="1000"
    panose-1="0 0 0 0 0 0 0 0 0 0"
    ascent="800"
    descent="-200"
    x-height="414"
    cap-height="563"
    bbox="-150 -293 1842 971"
    underline-thickness="50"
    underline-position="-125"
    unicode-range="U+000D-240D"
  />
<missing-glyph horiz-adv-x="596" 
d="M60 -130v753h476v-753h-476zM200 -11h196v515h-196v-515z" />
    <glyph glyph-name="w_w_w.liga" unicode="www" horiz-adv-x="1869" 
d="M91 0l-82 395v21h138l44 -300h2l71 300h119l75 -300h2l45 300h137v-21l-86 -395h-193l-38 175h-2l-35 -175h-197zM691 0l-82 395v21h138l44 -300h2l71 300h119l75 -300h2l45 300h137v-21l-86 -395h-193l-38 175h-2l-35 -175h-197zM1291 0l-82 395v21h138l44 -300h2
l71 300h119l75 -300h2l45 300h137v-21l-86 -395h-193l-38 175h-2l-35 -175h-197z" />
    <glyph glyph-name=".notdef" horiz-adv-x="596" 
d="M60 -130v753h476v-753h-476zM200 -11h196v515h-196v-515z" />
    <glyph glyph-name=".null" horiz-adv-x="0" 
 />
    <glyph glyph-name="nonmarkingreturn" horiz-adv-x="333" 
 />
    <glyph glyph-name="CR" unicode="&#xd;" horiz-adv-x="600" 
 />
    <glyph glyph-name="space" unicode=" " horiz-adv-x="200" 
 />
    <glyph glyph-name="exclam" unicode="!" horiz-adv-x="255" 
d="M136 -9q-48 0 -64 23t-16 55q0 31 16.5 53.5t63.5 22.5q45 0 61.5 -22t16.5 -54q0 -33 -16.5 -55.5t-61.5 -22.5zM88 194q-9 54 -19.5 107t-16 100.5t-1 83.5t23.5 57t59 21t60 -21t24 -58t-1.5 -84.5t-16 -100t-20.5 -105.5l-11.5 3t-34.5 3q-16 0 -31 -3z" />
    <glyph glyph-name="quotedbl" unicode="&#x22;" horiz-adv-x="415" 
d="M40 305v85h31q27 0 40 5t13 26q-48 0 -66 21t-18 50q0 30 17 50.5t57 20.5q30 0 50 -18.5t20 -78.5q0 -41 -11.5 -78t-36 -60t-65.5 -23h-31zM241 305v85h31q27 0 40 5t13 26q-48 0 -66 21t-18 50q0 30 17 50.5t57 20.5q30 0 50 -18.5t20 -78.5q0 -41 -11.5 -78t-36 -60
t-65.5 -23h-31z" />
    <glyph glyph-name="numbersign" unicode="#" horiz-adv-x="688" 
d="M52 0l131 310l80 253h130l-138 -325l-75 -238h-128zM15 118v119h556v-119h-556zM253 0l131 310l80 253h130l-136 -326l-74 -237h-131zM70 309v119h553v-119h-553z" />
    <glyph glyph-name="dollar" unicode="$" horiz-adv-x="569" 
d="M289 -10q-51 0 -103.5 20t-91 65t-49.5 118l137 25q0 -2 2 -13t8 -26.5t18 -30.5t32.5 -25t51.5 -10q11 0 24.5 2t26 7t21 14t8.5 24q0 21 -18 33.5t-47 20.5t-64 16t-69 20t-62 32.5t-43 53t-12 81.5q3 47 29.5 82t78 54.5t128.5 19.5q59 0 110.5 -22t83.5 -66.5
t32 -113.5l-132 -21q0 36 -14.5 56t-36 28t-41 9.5t-28.5 1.5q-19 0 -41 -10t-24 -36q0 -23 18.5 -36t48.5 -21t65.5 -15.5t70.5 -19t64 -30.5t44.5 -51t12.5 -81t-37.5 -84t-88 -53t-113.5 -18zM230 -108l10 114h120l10 -114h-140zM240 547l-10 124h140l-10 -124h-120z" />
    <glyph glyph-name="percent" unicode="%" horiz-adv-x="643" 
d="M153 0l-95 67l247 238l192 258l94 -66l-241 -229zM499 -10q-60 0 -87.5 32t-27.5 87q0 52 27 84t88 32q62 0 90 -32t28 -84t-28 -85.5t-90 -33.5zM497 77q19 0 27 9.5t8 22.5q0 14 -8 24t-27 10q-17 0 -25 -10t-8 -24q0 -13 8 -22.5t25 -9.5zM142 338q-61 0 -88.5 32
t-27.5 84q0 54 27.5 86.5t88.5 32.5t90 -32.5t29 -86.5q0 -50 -29 -83t-90 -33zM140 425q19 0 26.5 9.5t7.5 22.5q0 14 -7.5 24t-26.5 10q-17 0 -25 -10t-8 -24q0 -13 8 -22.5t25 -9.5z" />
    <glyph glyph-name="ampersand" unicode="&#x26;" horiz-adv-x="658" 
d="M592 -3q-36 16 -68.5 32t-61.5 33q-46 -36 -102 -54t-111.5 -17t-101.5 20.5t-74 57t-28 93.5q0 45 18.5 74t42.5 45t42.5 22l18.5 6l-16 15t-31.5 43.5t-15.5 69.5q0 44 24.5 73.5t63 45t82 16.5t82 -13.5t63 -44.5t24.5 -76q0 -37 -15.5 -64t-36.5 -45t-36.5 -26.5
l-15.5 -8.5l7.5 -8t24 -23t41.5 -37q0 -1 5 5.5t9 17t1.5 23t-17.5 24.5l118 75q0 1 8.5 -11t18.5 -33t15.5 -49.5t-1 -61t-32.5 -67.5q17 -9 41.5 -22t64.5 -30zM354 141q-23 19 -41.5 34.5t-35 32.5t-34.5 37q-22 -11 -42 -24.5t-20 -41.5q0 -21 12 -36t31 -23.5t42 -9
t46 7t42 23.5zM262 358q12 6 21 12t16.5 12t12.5 12t8.5 11.5t4.5 11.5q3 19 -6 31t-24 17t-30.5 2t-26 -13.5t-9.5 -29.5q1 -15 9 -32t24 -34z" />
    <glyph glyph-name="quotesingle" unicode="'" horiz-adv-x="259" 
d="M70 305v85h31q27 0 40 5t13 26q-48 0 -66 21t-18 50q0 30 17 50.5t57 20.5q30 0 50 -18.5t20 -78.5q0 -41 -11.5 -78t-36 -60t-65.5 -23h-31z" />
    <glyph glyph-name="parenleft" unicode="(" horiz-adv-x="363" 
d="M233 -199l-19.5 16t-48 48t-57.5 80t-48.5 111.5t-19.5 143.5t19.5 144.5t48.5 113t57.5 80.5t48 48.5l19.5 16.5l110 -108q-4 -3 -26.5 -16t-53.5 -36t-61.5 -57.5t-50.5 -80.5t-20 -105q0 -60 21.5 -107t53 -81t63 -56.5t53 -33.5l21.5 -11z" />
    <glyph glyph-name="parenright" unicode=")" horiz-adv-x="353" 
d="M120 -199l-110 110l21.5 11t53 33.5t63 56.5t53 81t21.5 107q0 58 -20 104.5t-50.5 81t-61.5 57.5t-53.5 36t-26.5 16l110 108l19.5 -16.5t48.5 -48.5t57.5 -80.5t48 -113t19.5 -144.5t-19.5 -143.5t-48 -111.5t-57.5 -80t-48.5 -48z" />
    <glyph glyph-name="asterisk" unicode="*" horiz-adv-x="387" 
d="M357 400l-114 -5l90 -71l-100 -73l-39 108l-40 -108l-100 73l91 71l-115 5l38 116l95 -64l-30 111h123l-32 -111l95 64z" />
    <glyph glyph-name="plus" unicode="+" horiz-adv-x="420" 
d="M164 76v300h94v-300h-94zM60 178v94h300v-94h-300z" />
    <glyph glyph-name="comma" unicode="," horiz-adv-x="264" 
d="M60 -116v85h31q27 0 40 5t13 26q-48 0 -66 21t-18 50q0 30 17 50.5t57 20.5q30 0 50 -18.5t20 -78.5q0 -41 -11.5 -78t-36 -60t-65.5 -23h-31z" />
    <glyph glyph-name="hyphen" unicode="-" horiz-adv-x="317" 
d="M40 178v94h222v-94h-222z" />
    <glyph glyph-name="period" unicode="." horiz-adv-x="246" 
d="M114 0q-47 0 -63 23t-16 55q0 31 16.5 53t62.5 22q45 0 61 -22t16 -53q0 -33 -16 -55.5t-61 -22.5z" />
    <glyph glyph-name="slash" unicode="/" horiz-adv-x="419" 
d="M25 0l254 563h130l-254 -563h-130z" />
    <glyph glyph-name="zero" unicode="0" horiz-adv-x="576" 
d="M288 -14q-130 0 -194 79.5t-64 214.5q0 89 27 154.5t84.5 102t146.5 36.5q88 0 145 -36t85 -102t28 -155q0 -87 -28 -153.5t-85 -103.5t-145 -37zM287 101q67 0 98.5 43.5t31.5 135.5q0 61 -13.5 100.5t-42.5 58.5t-74 19q-65 0 -96.5 -41.5t-31.5 -136.5
q0 -61 13.5 -100.5t41.5 -59t73 -19.5z" />
    <glyph glyph-name="one" unicode="1" horiz-adv-x="424" 
d="M379 119v-119h-308v119h95v295q-6 -41 -23.5 -62.5t-38 -29.5t-37.5 -9t-22 -1v155q7 -2 27.5 -2.5t44.5 7.5t42.5 29t21.5 62h124v-444h74z" />
    <glyph glyph-name="two" unicode="2" horiz-adv-x="547" 
d="M45 0v116q1 1 18 7.5t45.5 18.5t62 30t66.5 40.5t60.5 50t43.5 58.5q21 43 13.5 73t-31 46t-52.5 16q-49 0 -76.5 -36.5t-11.5 -115.5l-130 19q-12 79 16.5 135t85.5 85.5t130 29.5q54 0 99.5 -20.5t74.5 -56.5t34 -83.5t-21 -100.5q-21 -42 -53 -73.5t-68.5 -53.5
t-71 -35.5t-60.5 -21t-37 -9.5h320v-119h-457z" />
    <glyph glyph-name="three" unicode="3" horiz-adv-x="541" 
d="M283 -10q-77 0 -133 24.5t-86 74t-29 123.5l134 20q0 -36 13 -63.5t39 -43t65 -15.5q28 0 48 10.5t30.5 28.5t10.5 38q0 17 -7 29t-20.5 20t-31.5 12t-39 4h-53v71h56q21 0 42.5 4t36 15.5t14.5 35.5q0 35 -26.5 57.5t-71.5 22.5q-25 0 -44.5 -8.5t-33 -23t-20.5 -32
t-7 -36.5l-124 22q0 13 6 36t21 50t40.5 51.5t64.5 40t93 15.5q110 0 168 -43.5t58 -115.5q0 -49 -28 -88t-90 -43q59 -3 93 -40.5t34 -88.5q0 -52 -28.5 -89t-78.5 -56t-116 -19z" />
    <glyph glyph-name="four" unicode="4" horiz-adv-x="551" 
d="M35 101v119q54 23 93.5 63t64.5 89.5t37 99t12 91.5h152q0 -56 -25.5 -119t-75 -121.5t-122.5 -102.5h340v-119h-476zM309 0v281h139v-281h-139z" />
    <glyph glyph-name="five" unicode="5" horiz-adv-x="540" 
d="M269 -10q-77 0 -126 27.5t-73.5 67.5t-29.5 77l138 21q2 -9 8 -22t17 -25.5t28.5 -21t41.5 -8.5q27 0 45.5 11.5t29 30t12.5 38.5q3 23 -6 45t-29 36.5t-52 14.5q-20 0 -34 -6.5t-22 -15.5t-12 -16t-4 -8l-147 22l32 305h386v-119h-291l-17 -153l8 12.5t26 28.5t47 28.5
t71 12.5q66 0 108 -27.5t60.5 -70.5t14.5 -91t-33 -92.5t-79 -73t-118 -28.5z" />
    <glyph glyph-name="six" unicode="6" horiz-adv-x="566" 
d="M288 -10q-82 0 -137 38.5t-82.5 104.5t-27.5 148q0 58 17 110.5t50 93.5t80.5 64.5t108.5 23.5q57 0 95.5 -14.5t62.5 -36t36.5 -43.5t17 -36.5l4.5 -14.5l-139 -23l-6 12t-24.5 23.5t-54.5 11.5q-10 0 -30.5 -6t-41.5 -25t-33.5 -57t-7.5 -102q0 1 7.5 15.5t25.5 33
t48 32.5t75 14q67 0 110 -26.5t62.5 -68.5t15.5 -88.5t-31.5 -88.5t-77.5 -68.5t-123 -26.5zM297 105q31 0 52 12t31.5 31.5t10.5 41t-10 41t-30 32t-51 13.5q-30 0 -54 -14t-38.5 -37t-14.5 -51q6 -26 23 -41t39 -21.5t42 -6.5z" />
    <glyph glyph-name="seven" unicode="7" horiz-adv-x="551" 
d="M101 0q0 115 38 206.5t101.5 152.5t139.5 83h-331v121h457v-119q-24 -9 -58 -27.5t-70.5 -51t-67.5 -82t-50.5 -119.5t-19.5 -164h-139z" />
    <glyph glyph-name="eight" unicode="8" horiz-adv-x="581" 
d="M289 -11q-71 0 -127.5 19.5t-89 57t-32.5 90.5q0 56 38.5 95.5t108.5 46.5q-38 5 -61 20.5t-34.5 35t-15.5 38t-4 30.5q0 46 27 79.5t76 52.5t114 19q68 0 117 -19t75.5 -53t26.5 -79q0 -12 -4 -30.5t-15.5 -38t-34.5 -35t-61 -20.5q71 -8 109.5 -46t38.5 -96
q0 -54 -33 -91.5t-90 -56.5t-129 -19zM290 95q53 0 84 23t31 61q0 46 -31 66.5t-84 20.5q-52 0 -83.5 -20.5t-31.5 -66.5q0 -38 31.5 -61t83.5 -23zM289 330q46 0 71 17.5t25 47.5q0 39 -26 56t-70 17q-43 0 -68.5 -17t-25.5 -56q0 -20 11.5 -34.5t33 -22.5t49.5 -8z" />
    <glyph glyph-name="nine" unicode="9" horiz-adv-x="564" 
d="M265 -10q-59 0 -99.5 14.5t-65 36t-37.5 43.5t-17.5 36.5l-4.5 14.5l139 27l3.5 -7t12 -16.5t25.5 -16.5t44 -7q13 0 32 5.5t38 23.5t31.5 55.5t11.5 101.5l-7.5 -14.5t-25.5 -33.5t-48 -33.5t-75 -14.5q-67 0 -110 26.5t-62.5 68.5t-15.5 89t31.5 89t77.5 68.5t123 26.5
q69 0 117 -24t77.5 -65t43 -92t13.5 -106q0 -58 -14 -111t-44 -95t-78 -66t-116 -24zM256 285q47 0 76 29t29 73q-9 43 -37 58.5t-59 15.5q-29 0 -50 -12.5t-32 -32.5t-12 -42t7.5 -42t28 -33t49.5 -14z" />
    <glyph glyph-name="colon" unicode=":" horiz-adv-x="266" 
d="M134 19q-47 0 -63 23t-16 55q0 31 16 53t63 22q46 0 61.5 -22t15.5 -53q0 -32 -15.5 -55t-61.5 -23zM134 242q-46 0 -62.5 22.5t-16.5 55.5q0 31 16.5 53t62.5 22t61.5 -22.5t15.5 -52.5q0 -32 -15.5 -55t-61.5 -23z" />
    <glyph glyph-name="semicolon" unicode=";" horiz-adv-x="279" 
d="M147 264q-47 0 -63 23t-16 55q0 31 16 53t63 22q45 0 61 -22t16 -53q0 -33 -16 -55.5t-61 -22.5zM76 -116v85h31q27 0 40 5t13 26q-48 0 -66 21t-18 50q0 30 17 50.5t57 20.5q30 0 50 -18.5t20 -78.5q0 -41 -11.5 -78t-36 -60t-65.5 -23h-31z" />
    <glyph glyph-name="less" unicode="&#x3c;" horiz-adv-x="420" 
d="M383 427v-106l-249 -83l249 -82v-107l-345 189z" />
    <glyph glyph-name="equal" unicode="=" horiz-adv-x="420" 
d="M35 256v90h350v-90h-350zM35 99v90h350v-90h-350z" />
    <glyph glyph-name="greater" unicode="&#x3e;" horiz-adv-x="420" 
d="M38 427l345 -189l-345 -189v107l249 82l-249 83v106z" />
    <glyph glyph-name="question" unicode="?" horiz-adv-x="460" 
d="M284 194h-127q0 21 13 42.5t33 43.5t40 43t34.5 41.5t16.5 39.5q2 20 -9 34.5t-41 14.5q-27 0 -39.5 -11t-16.5 -27t-3 -29t1 -18h-131q-9 32 -4.5 67.5t25 66.5t59.5 51t100 20q58 0 103 -19t71 -52.5t26 -77.5q0 -35 -15.5 -62.5t-37.5 -49.5t-44.5 -41t-38 -37.5
t-15.5 -39.5zM219 -9q-47 0 -63.5 23t-16.5 54q0 32 17 54.5t63 22.5t62 -22.5t16 -54.5q0 -33 -16 -55t-62 -22z" />
    <glyph glyph-name="at" unicode="@" horiz-adv-x="895" 
d="M452 -193q-78 0 -151 20t-130.5 63t-91.5 111t-34 165q0 92 33.5 164t92 122.5t135.5 77t164 26.5q71 0 138 -19t120.5 -55.5t85 -90.5t31.5 -125q0 -59 -26 -110.5t-74 -83.5t-115 -32q-52 0 -71.5 22.5t-19.5 50.5q0 25 5 46.5t8 41.5l18 138h104l-29 -141
q-9 -43 -6 -71.5t35 -28.5q30 0 50.5 17.5t31.5 46t11 61.5q0 68 -38 119.5t-102 80t-141 28.5q-85 0 -151 -36t-103.5 -97.5t-37.5 -138.5q0 -78 35 -129.5t95.5 -77.5t137.5 -26q53 0 108.5 13.5t110.5 41.5l71 -122q-64 -34 -142 -53t-158 -19zM412 47q-57 0 -87 34.5
t-30 88.5q0 47 20.5 88.5t57 67.5t82.5 26q56 0 87 -33t31 -86q0 -48 -20 -90.5t-56.5 -69t-84.5 -26.5zM450 123q29 0 46.5 15t26 38t8.5 47q0 25 -12.5 39.5t-41.5 14.5q-25 0 -43.5 -13t-29 -34.5t-10.5 -46.5q0 -27 14 -43.5t42 -16.5z" />
    <glyph glyph-name="A" unicode="A" horiz-adv-x="591" 
d="M18 0l162 563h229l168 -563h-149l-131 505l-129 -505h-150zM153 141l-5 106h295l-4 -106h-286z" />
    <glyph glyph-name="B" unicode="B" horiz-adv-x="584" 
d="M50 0v563h243q20 0 49 -1.5t60 -8t58 -22.5t44 -44t17 -72q0 -32 -13 -59t-46.5 -44.5t-97.5 -21.5v-4q73 -2 113 -20t56 -46.5t16 -65.5q0 -46 -18 -75.5t-47.5 -45.5t-64 -23t-68 -8.5t-58.5 -1.5h-243zM188 111h92q32 0 60.5 2.5t46.5 16t18 45.5t-17.5 45t-46 15.5
t-61.5 2.5h-92v-127zM187 342h88q25 0 50 2.5t42 14t17 39.5q0 27 -15.5 38t-40.5 13t-53 2h-88v-109z" />
    <glyph glyph-name="C" unicode="C" horiz-adv-x="608" 
d="M303 -10q-80 0 -146 32t-105 96t-38 159q1 93 39.5 159.5t104.5 101.5t148 35q85 0 143 -30.5t90.5 -80t41.5 -106.5h-144q-5 38 -28.5 56t-52 23.5t-50.5 5.5q-78 0 -116 -40.5t-38 -112.5q0 -79 37 -123t116 -44q23 0 52 6.5t52.5 26.5t28.5 60h145q-10 -59 -43 -110.5
t-91.5 -82.5t-145.5 -31z" />
    <glyph glyph-name="D" unicode="D" horiz-adv-x="625" 
d="M198 114v329h66q54 0 92.5 -18t59 -53.5t20.5 -88.5q0 -52 -11.5 -85t-34 -51.5t-54 -25.5t-72.5 -7h-21.5h-44.5zM585 282q0 94 -44.5 156t-126.5 93.5t-193 31.5h-51.5h-109.5v-563h106.5h54.5q111 0 193 24t126.5 85.5t44.5 172.5z" />
    <glyph glyph-name="E" unicode="E" horiz-adv-x="523" 
d="M50 0v563h426v-119h-289v-103h215v-112h-215v-118h300v-111h-437z" />
    <glyph glyph-name="F" unicode="F" horiz-adv-x="470" 
d="M197 0h-137v563h412v-119h-275v-97h203v-111h-203v-236z" />
    <glyph glyph-name="G" unicode="G" horiz-adv-x="636" 
d="M290 -10q-83 0 -146 32.5t-96.5 96.5t-31.5 159q3 96 41.5 162t104.5 99.5t149 33.5q124 0 186.5 -50t84.5 -146l-135 -21q-8 35 -30.5 53.5t-51 25.5t-54.5 7q-84 0 -121 -43.5t-36 -109.5q0 -81 45.5 -122t130.5 -41q25 0 52 5.5t50 19.5t35 41h-91v100h217v-292h-93
l-30 72h-2q-9 -17 -25.5 -32t-39 -26t-51 -17.5t-62.5 -6.5z" />
    <glyph glyph-name="H" unicode="H" horiz-adv-x="595" 
d="M190 0h-140v563h140v-563zM405 563h140v-563h-140v563zM494 230h-384v106h384v-106z" />
    <glyph glyph-name="I" unicode="I" horiz-adv-x="415" 
d="M136 18v527h139v-527h-139zM63 0v119h284v-119h-284zM63 444v119h284v-119h-284z" />
    <glyph glyph-name="J" unicode="J" horiz-adv-x="508" 
d="M243 -10q-57 0 -96.5 15t-64 42.5t-36 65t-11.5 82.5h132q0 -23 6 -42.5t21.5 -31t43.5 -11.5q36 0 53 22.5t17 89.5v323h140v-299q0 -58 -7.5 -105.5t-28.5 -81t-61.5 -51.5t-107.5 -18zM190 457v106h258v-106h-258z" />
    <glyph glyph-name="K" unicode="K" horiz-adv-x="604" 
d="M197 169v153l204 241h182v-13zM60 0v563h139v-563h-139zM436 0l-187 286l101 99l245 -372v-13h-159z" />
    <glyph glyph-name="L" unicode="L" horiz-adv-x="473" 
d="M60 0v563h140v-563h-140zM60 0v119h383v-119h-383z" />
    <glyph glyph-name="M" unicode="M" horiz-adv-x="766" 
d="M60 0v563h243l83 -505h2l81 505h242v-563h-145l10 504h-1l-88 -504h-203l-86 504h-2l9 -504h-145z" />
    <glyph glyph-name="N" unicode="N" horiz-adv-x="630" 
d="M429 563h146v-563h-268l-105 502h-2v-502h-145v563h248l124 -502h2v502z" />
    <glyph glyph-name="O" unicode="O" horiz-adv-x="619" 
d="M302 -14q-140 0 -214 79.5t-74 214.5q0 89 32 154.5t96 102t160 36.5q140 0 213 -79.5t73 -213.5q0 -87 -32.5 -153.5t-96 -103.5t-157.5 -37zM300 121q51 0 84.5 21.5t50 58t16.5 79.5q0 44 -16.5 81t-50 59t-84.5 22q-73 0 -111.5 -46t-38.5 -116q0 -42 16.5 -78.5
t49.5 -58.5t84 -22z" />
    <glyph glyph-name="P" unicode="P" horiz-adv-x="508" 
d="M190 0h-140v563h140v-563zM171 563h117q96 0 151.5 -49.5t55.5 -148.5q0 -84 -57 -132.5t-150 -48.5h-116v98h95q42 0 72 21.5t30 63.5q0 43 -29.5 63.5t-72.5 20.5h-96v112z" />
    <glyph glyph-name="Q" unicode="Q" horiz-adv-x="636" 
d="M319 -14q-141 0 -215 79.5t-74 214.5q0 88 32 154t96.5 102.5t160.5 36.5q94 0 158 -36.5t96.5 -102t32.5 -154.5q0 -87 -32.5 -153.5t-96.5 -103.5t-158 -37zM400 -141q-22 0 -46 2t-45 15t-34 45.5t-13 92.5v55h133v-44q0 -30 1 -43t11 -15.5t37 -2.5q-4 0 13.5 0.5
t36.5 0.5l-2 -105h-18.5t-33.5 -0.5t-30.5 -0.5t-9.5 0zM317 124q74 0 110 44t36 117t-36 117.5t-110 44.5q-71 0 -108 -42.5t-37 -119.5q0 -73 36 -117t109 -44z" />
    <glyph glyph-name="R" unicode="R" horiz-adv-x="578" 
d="M50 0v563h229q74 0 127 -17t82 -54t29 -99q0 -51 -15 -86.5t-43 -54.5t-66 -19q24 0 37.5 -9.5t21 -25t11.5 -32.5t8 -33t11.5 -27t22.5 -13t40 8v-76q-28 -24 -62 -31.5t-64.5 4t-50.5 44t-20 88.5q0 19 -2 35.5t-10 29t-25 20.5t-46 10t-75 -2v-223h-140zM190 321h70
q46 0 75 1t43.5 13.5t14.5 45.5q0 37 -17.5 51.5t-51 16.5t-82.5 2h-52v-130z" />
    <glyph glyph-name="S" unicode="S" horiz-adv-x="584" 
d="M282 -10q-48 0 -94 11t-83 35.5t-59.5 63.5t-22.5 94h140q0 -5 2.5 -14t10.5 -20t22 -21t37.5 -16.5t57.5 -6.5q14 0 29.5 1.5t28.5 6t21 13.5t8 24q0 21 -19.5 33t-51 19.5t-69 15.5t-74.5 20t-67.5 32.5t-47 53t-13.5 81.5q4 49 34 84t85 54t132 19q62 0 116.5 -22
t89 -67t34.5 -114h-135q0 23 -12 37.5t-31 22t-40 10t-38 2.5q-37 0 -61.5 -9t-24.5 -35q0 -23 20 -35.5t52 -20t70.5 -15t76.5 -18.5t68.5 -30.5t48 -51.5t13.5 -82q-3 -49 -35.5 -83.5t-88 -53t-130.5 -18.5z" />
    <glyph glyph-name="T" unicode="T" horiz-adv-x="480" 
d="M302 545v-545h-140v545h140zM10 444v119h445v-119h-445z" />
    <glyph glyph-name="U" unicode="U" horiz-adv-x="614" 
d="M310 -14q-126 0 -190.5 66.5t-64.5 187.5v323h150v-322q0 -42 11 -66.5t27.5 -36.5t34.5 -15.5t32 -3.5q23 0 47.5 7t41.5 33t17 82v322h150v-323q0 -123 -63.5 -188.5t-192.5 -65.5z" />
    <glyph glyph-name="V" unicode="V" horiz-adv-x="595" 
d="M442 563h153l-174 -563h-232l-174 563h153l136 -506z" />
    <glyph glyph-name="W" unicode="W" horiz-adv-x="802" 
d="M328 563h148l-74 -176l-47 -387h-224l-111 563h148l74 -506zM634 563h148l-104 -563h-223l-53 387l-76 176h150l91 -506z" />
    <glyph glyph-name="X" unicode="X" horiz-adv-x="591" 
d="M16 0l193 295l-180 268h164l110 -187l110 187h162l-178 -268l194 -295h-162l-126 210l-125 -210h-162z" />
    <glyph glyph-name="Y" unicode="Y" horiz-adv-x="464" 
d="M162 194l-191 369h157l107 -251l107 251h157l-197 -369h-140zM163 0v207h139v-207h-139z" />
    <glyph glyph-name="Z" unicode="Z" horiz-adv-x="583" 
d="M50 0v117l306 327h-287v119h466v-119l-299 -325h298v-119h-484z" />
    <glyph glyph-name="bracketleft" unicode="[" horiz-adv-x="326" 
d="M35 -199v802h271v-130h-131v-542h131v-130h-271z" />
    <glyph glyph-name="backslash" unicode="\" horiz-adv-x="399" 
d="M224 0l-254 563h130l254 -563h-130z" />
    <glyph glyph-name="bracketright" unicode="]" horiz-adv-x="326" 
d="M35 -199v130h131v542h-131v130h271v-802h-271z" />
    <glyph glyph-name="asciicircum" unicode="^" horiz-adv-x="480" 
d="M30 320v32l210 210l210 -210v-32h-128l-81 140h-2l-80 -140h-129z" />
    <glyph glyph-name="underscore" unicode="_" horiz-adv-x="617" 
d="M40 0v94h522v-94h-522z" />
    <glyph glyph-name="grave" unicode="`" horiz-adv-x="220" 
d="M125 461l-92 92v22h115l39 -97v-17h-62z" />
    <glyph glyph-name="a" unicode="a" horiz-adv-x="480" 
d="M174 -10q-56 0 -89 25.5t-47 72.5t-14 112t14 113t47 74.5t89 26.5q41 0 66 -11.5t39 -26.5t19.5 -26.5l5.5 -11.5h2v76h144v-414h-122l-22 56h-2q1 0 -5 -10t-20.5 -23t-40 -23t-64.5 -10zM233 105q34 0 49.5 13.5t19.5 35.5t4 45q0 24 -4 45.5t-19.5 34.5t-49.5 13
t-49.5 -13.5t-19.5 -34.5t-4 -45t4 -45.5t19.5 -35t49.5 -13.5z" />
    <glyph glyph-name="b" unicode="b" horiz-adv-x="513" 
d="M313 -10q-36 0 -60.5 10t-39.5 23t-21.5 23l-6.5 10h-2l-22 -56h-122v563h144v-225h2l6 11.5t20 26.5t39 26.5t63 11.5q62 0 97 -25.5t50 -73.5t15 -117q0 -64 -14.5 -111t-49.5 -72t-98 -25zM261 105q36 0 52.5 13.5t21 35t4.5 45.5t-4.5 45.5t-21 34.5t-52.5 13
q-35 0 -52 -13t-21.5 -34.5t-4.5 -45.5t4.5 -45.5t21.5 -35t52 -13.5z" />
    <glyph glyph-name="c" unicode="c" horiz-adv-x="486" 
d="M245 -10q-58 0 -107.5 23t-79.5 70t-30 117q2 69 31 117t78 73.5t109 25.5q70 0 116.5 -27t70 -67.5t23.5 -81.5h-127q-5 29 -24 43.5t-54 14.5q-30 0 -49 -11t-28.5 -30t-9.5 -45q0 -47 21 -75t68 -28q27 0 49 15t27 49h127q0 -44 -23.5 -86t-70.5 -69.5t-117 -27.5z
" />
    <glyph glyph-name="d" unicode="d" horiz-adv-x="523" 
d="M200 -10q-62 0 -97.5 25t-50 72t-14.5 111q0 69 15 117t50.5 73.5t96.5 25.5q38 0 63 -11.5t39 -26.5t20 -26.5l6 -11.5h2v225h144v-563h-122l-22 56h-2l-6.5 -10t-21.5 -23t-39.5 -23t-60.5 -10zM252 105q36 0 52.5 13.5t21 35t4.5 45.5t-4.5 45.5t-21 34.5t-52.5 13
q-35 0 -52 -13t-21.5 -34.5t-4.5 -45.5t4.5 -45.5t21.5 -35t52 -13.5z" />
    <glyph glyph-name="e" unicode="e" 
d="M235 -10q-75 0 -121 30t-67.5 77.5t-23.5 99.5q-2 68 24 117.5t73.5 76t109.5 26.5q59 0 105.5 -24.5t73 -69.5t26.5 -108v-10.5v-15.5h-280q0 -44 21.5 -64t55.5 -20q29 0 46.5 13.5t20.5 34.5h135q-3 -44 -26 -81.5t-66 -59.5t-107 -22zM157 245h138l-0.5 9t-6.5 21
t-20 21t-41 9t-42 -9t-20.5 -21t-6.5 -21z" />
    <glyph glyph-name="f" unicode="f" horiz-adv-x="309" 
d="M69 0v459q0 74 35 102t95 28h96v-107h-87v-482h-139zM20 319v95h275v-95h-275z" />
    <glyph glyph-name="g" unicode="g" horiz-adv-x="496" 
d="M165 -199v132h157v123h-2l-6.5 -10t-20.5 -23t-38 -23t-60 -10q-62 0 -98 25.5t-51 72.5t-15 111q0 69 15.5 117t51.5 73t97 25q38 0 62.5 -11.5t38 -26.5t19 -26.5l5.5 -11.5h2v76h144v-414q0 -77 -20.5 -120.5t-61 -61t-100.5 -17.5h-119zM244 105q36 0 52.5 13.5
t21 35t4.5 45.5t-4.5 45.5t-21 34.5t-52.5 13q-35 0 -52 -13t-21.5 -34.5t-4.5 -45.5t4.5 -45.5t21.5 -35t52 -13.5z" />
    <glyph glyph-name="h" unicode="h" horiz-adv-x="506" 
d="M45 0v563h144v-225h2l5 11.5t18.5 26.5t37.5 26.5t62 11.5q44 0 72 -16.5t43.5 -43t22 -56.5t8 -56.5t1.5 -43.5v-198h-136v199q0 22 -3.5 43t-17.5 35.5t-48 14.5q-33 0 -47 -14.5t-17 -35.5t-3 -43v-199h-144z" />
    <glyph glyph-name="i" unicode="i" horiz-adv-x="230" 
d="M46 0v414h140v-414h-140zM116 459q-42 0 -56.5 21.5t-14.5 49.5q0 27 14.5 48t56.5 21t55.5 -21t13.5 -48q0 -28 -13.5 -49.5t-55.5 -21.5z" />
    <glyph glyph-name="j" unicode="j" horiz-adv-x="277" 
d="M127 459q-42 0 -56.5 21.5t-14.5 49.5q0 27 14.5 48t56.5 21t55.5 -21t13.5 -48q0 -28 -13.5 -49.5t-55.5 -21.5zM57 414h140v-483q0 -74 -35 -102t-95 -28h-77v107h67v506z" />
    <glyph glyph-name="k" unicode="k" horiz-adv-x="468" 
d="M175 0h-140v563h140v-563zM266 312l208 -311h-165l-145 213zM173 96v153l130 168h168z" />
    <glyph glyph-name="l" unicode="l" horiz-adv-x="226" 
d="M45 0v563h136v-563h-136z" />
    <glyph glyph-name="m" unicode="m" horiz-adv-x="692" 
d="M35 0v414h136v-76h2l6 11.5t19.5 26.5t35.5 26.5t54 11.5q29 0 49 -10.5t33 -27.5t20 -38h2q0 1 7 12.5t21.5 26.5t38 26t56.5 11q38 0 63.5 -16.5t41.5 -43t24 -56t10.5 -56.5t2.5 -44v-198h-136v199q0 15 -1 31t-6 30.5t-16 23t-31 8.5q-26 0 -37.5 -15t-13.5 -36.5
t-2 -41.5v-199h-136v199q0 15 -1 31t-6 30.5t-16 23t-31 8.5q-26 0 -37.5 -15t-13.5 -36.5t-2 -41.5v-199h-136z" />
    <glyph glyph-name="n" unicode="n" horiz-adv-x="486" 
d="M35 0v414h121l23 -76h2l5.5 11.5t19.5 26.5t39.5 26.5t65.5 11.5q45 0 72.5 -16t42 -41.5t19.5 -55t5.5 -57t0.5 -46.5v-198h-136v199q0 22 -3.5 43t-17.5 35.5t-48 14.5q-33 0 -47 -14.5t-17 -35.5t-3 -43v-199h-144z" />
    <glyph glyph-name="o" unicode="o" horiz-adv-x="487" 
d="M239 -10q-73 0 -122 27.5t-73 75.5t-24 109q0 62 24 110t73 75.5t122 27.5q107 0 162.5 -58.5t55.5 -154.5q0 -60 -23.5 -108t-71.5 -76t-123 -28zM239 106q37 0 55 15t23.5 38.5t5.5 47.5q0 25 -5.5 48t-23.5 38.5t-55 15.5t-55.5 -15.5t-24 -38.5t-5.5 -48
q0 -24 5.5 -47.5t24 -38.5t55.5 -15z" />
    <glyph glyph-name="p" unicode="p" horiz-adv-x="510" 
d="M318 -10q-36 0 -59.5 10t-37.5 23t-20 23l-6 10h-2v-255h-144v613h122l22 -76h2l5 11.5t18.5 26.5t37.5 26.5t62 11.5q63 0 99 -26t51 -74.5t15 -115.5q0 -66 -15.5 -112.5t-51.5 -71t-98 -24.5zM271 105q36 0 52.5 13.5t21 35t4.5 45.5t-4.5 45.5t-21 34.5t-52.5 13
q-35 0 -52 -13t-21.5 -34.5t-4.5 -45.5t4.5 -45.5t21.5 -35t52 -13.5z" />
    <glyph glyph-name="q" unicode="q" horiz-adv-x="510" 
d="M192 -10q-61 0 -97.5 24.5t-52 71t-15.5 112.5q0 67 15 115.5t51.5 74.5t98.5 26q38 0 62 -11.5t37.5 -26.5t18.5 -26.5l5 -11.5h2l22 76h122v-613h-144v255h-2l-6 -10t-20 -23t-37.5 -23t-59.5 -10zM239 105q36 0 52.5 13.5t21 35t4.5 45.5t-4.5 45.5t-21 34.5t-52.5 13
q-35 0 -52 -13t-21.5 -34.5t-4.5 -45.5t4.5 -45.5t21.5 -35t52 -13.5z" />
    <glyph glyph-name="r" unicode="r" horiz-adv-x="374" 
d="M35 0v414h132l9 -121l-1 -90v-203h-140zM175 165l-3 93q-1 18 5.5 44.5t24 52t49.5 42.5t81 17h9v-155h-10q-37 0 -66.5 -3t-49 -12t-30 -28t-10.5 -51z" />
    <glyph glyph-name="s" unicode="s" horiz-adv-x="427" 
d="M221 -10q-7 0 -29.5 1.5t-51 9t-55.5 24.5t-44.5 46.5t-17.5 76.5h128q0 -1 0.5 -10t6 -20t19 -19.5t40.5 -8.5q23 0 33.5 6t13.5 13t3 11q0 15 -17 24t-44 16.5t-57.5 17t-57.5 25t-44 40.5t-17 64q0 64 47.5 93t119.5 29q45 0 82 -10.5t64 -31t42.5 -51t16.5 -70.5
h-126q0 17 -6 28.5t-16.5 18t-23 9.5t-26.5 3q-29 0 -38 -9.5t-9 -19.5q0 -18 17.5 -28.5t45 -18.5t59 -17t59 -23.5t45 -38t17.5 -60.5q0 -39 -21.5 -65.5t-61.5 -40.5t-96 -14z" />
    <glyph glyph-name="t" unicode="t" horiz-adv-x="334" 
d="M203 0q-60 0 -95 28t-35 102v202h130v-225h96v-107h-96zM15 319v95q18 0 32 3.5t24.5 14t16 31.5t5.5 56h110v-105h93v-95h-281z" />
    <glyph glyph-name="u" unicode="u" horiz-adv-x="476" 
d="M170 -10q-45 0 -72.5 16t-42 41.5t-19.5 55t-5.5 57t-0.5 46.5v208h136v-209q0 -21 3.5 -42.5t18 -36t47.5 -14.5t47 14.5t17 36t3 42.5v209h144v-414h-121l-23 66h-2l-5.5 -11.5t-19.5 -26.5t-39.5 -26.5t-65.5 -11.5z" />
    <glyph glyph-name="v" unicode="v" horiz-adv-x="481" 
d="M314 414h136v-19l-128 -395h-193l-129 394v20h134l92 -298h2z" />
    <glyph glyph-name="w" unicode="w" horiz-adv-x="669" 
d="M91 0l-82 395v21h138l44 -300h2l71 300h119l75 -300h2l45 300h137v-21l-86 -395h-193l-38 175h-2l-35 -175h-197z" />
    <glyph glyph-name="x" unicode="x" 
d="M-10 0l151 214l-142 200h151l79 -123l78 123h152l-141 -200l150 -214h-150l-89 134l-88 -134h-151z" />
    <glyph glyph-name="y" unicode="y" 
d="M0 -199v106h70q15 0 28 1.5t25.5 13t25.5 41.5l12 28l-161 423h143l85 -282l93 282h143l-187 -462q-21 -51 -39 -81t-38 -45t-45.5 -20t-61.5 -5h-93z" />
    <glyph glyph-name="z" unicode="z" horiz-adv-x="459" 
d="M35 0v100l220 216h-206v101h365v-98l-212 -217h212v-102h-379z" />
    <glyph glyph-name="braceleft" unicode="{" horiz-adv-x="392" 
d="M362 -196q-87 -19 -142 -12.5t-83 36.5t-33 83t9 127q6 37 -1.5 57.5t-22.5 29t-31.5 10.5t-27.5 2v134q11 0 27.5 2t31.5 10.5t22.5 29t1.5 57.5q-13 74 -8.5 125t32.5 79.5t83 35.5t142 -7v-130q-55 12 -80.5 6.5t-32.5 -22.5t-3.5 -39.5t6.5 -45.5q8 -48 0.5 -84
t-35.5 -57.5t-82 -27.5q54 -6 82 -27t35.5 -56.5t-0.5 -83.5q-3 -23 -6.5 -46t3.5 -40t32.5 -22.5t80.5 6.5v-130z" />
    <glyph glyph-name="bar" unicode="|" horiz-adv-x="260" 
d="M60 -151v752h140v-752h-140z" />
    <glyph glyph-name="braceright" unicode="}" horiz-adv-x="402" 
d="M40 -196v130q55 -12 80.5 -6.5t32.5 22.5t3.5 40t-6.5 46q-8 48 -0.5 83.5t35.5 56.5t82 27q-54 6 -82 27.5t-35 57.5t0 84q3 23 6.5 45.5t-3.5 39.5t-32.5 22.5t-80.5 -6.5v130q99 6 155.5 -2t81 -34.5t25.5 -74.5t-13 -122q-6 -37 1.5 -57.5t22.5 -29t31.5 -10.5
t27.5 -2v-134q-11 0 -27.5 -2t-31.5 -10.5t-22.5 -29t-1.5 -57.5q14 -74 13.5 -122.5t-25 -75t-81.5 -34.5t-156 -2z" />
    <glyph glyph-name="asciitilde" unicode="~" horiz-adv-x="420" 
d="M270 200q-28 0 -44 9t-26 20t-18 20t-22 9q-16 0 -18.5 -13.5t-2.5 -39.5h-78q0 12 0.5 33.5t7.5 44t26 38.5t56 16q28 0 44.5 -9t26.5 -20t19 -20t21 -9q15 0 17.5 14.5t2.5 39.5h78q0 -19 -1.5 -41.5t-9.5 -43.5t-26.5 -34.5t-52.5 -13.5z" />
    <glyph glyph-name="uni00A0" unicode="&#xa0;" horiz-adv-x="200" 
 />
    <glyph glyph-name="exclamdown" unicode="&#xa1;" horiz-adv-x="228" 
d="M110 373q43 0 58 -21t15 -53q0 -29 -15 -50t-58 -21q-44 0 -59.5 21t-15.5 50q0 31 15 52.5t60 21.5zM58 167l15.5 -3t35.5 -3q26 0 38 3l12 3q9 -74 17 -133t11 -103t-2.5 -72.5t-23.5 -43t-53 -14.5q-34 0 -52 14t-23.5 42.5t-2.5 72t11 102.5t17 135z" />
    <glyph glyph-name="cent" unicode="&#xa2;" horiz-adv-x="479" 
d="M238 -10q-58 0 -107.5 23t-79.5 70t-30 117q2 69 31 117t78 73.5t109 25.5q70 0 114.5 -24.5t67.5 -62.5t28 -79l-127 -24q-8 38 -23.5 55t-59.5 17q-30 0 -48 -11t-26 -30t-8 -45q0 -47 18.5 -75t65.5 -28q37 0 55.5 19t25.5 58l127 -23q-6 -44 -29 -83.5t-67.5 -64.5
t-114.5 -25zM169 -108l10 124h120l10 -124h-140zM179 389l-10 124h140l-10 -124h-120z" />
    <glyph glyph-name="sterling" unicode="&#xa3;" horiz-adv-x="720" 
d="M139 -15l-63 104q17 13 37 30t34 40t15 53t-19 68q-29 53 -30 105t24 94.5t75 68t124 25.5q85 0 133.5 -28.5t70.5 -74.5t26 -99l-132 -21q-6 32 -17.5 52t-25.5 32t-29.5 17t-30 5.5t-26.5 -1.5q-20 -3 -36.5 -13.5t-25 -30t-4.5 -49.5t26 -71q27 -54 24 -89t-21.5 -57
t-40.5 -40q30 16 58 17.5t52.5 -5t46 -14.5t39.5 -11.5t32 4.5q17 11 19.5 33t-7.5 45l136 21q15 -66 4.5 -112t-44 -70t-88.5 -24q-32 0 -60 5t-53.5 11.5t-50.5 11.5t-50.5 5t-54 -7t-61.5 -26q-1 -1 -2.5 -1.5t-3.5 -2.5zM53 210v100h360v-100h-360z" />
    <glyph glyph-name="currency" unicode="&#xa4;" horiz-adv-x="600" 
d="M468 9h-34l-41 59q-38 -27 -93 -27q-57 0 -96 28l-42 -60h-31l54 77q-41 46 -41 126q0 90 50 135l-47 65h34l35 -50q34 20 84 20q48 0 82 -19l34 49h35l-47 -65q51 -46 51 -135q0 -79 -41 -126zM300 62q25 0 45 6.5t36 16.5q4 3 7 6l6 6q-9 -10 -9.5 -10t3.5 4l8.5 8.5
l4.5 4.5q32 40 32 108q0 78 -41 118q-8 8 -22 15q-30 16 -70 16q-42 0 -72 -16q-1 -1 -11 -8t-10 -8q-41 -38 -41 -117q0 -33 12.5 -67.5t38.5 -58.5q16 -11 36.5 -17.5t46.5 -6.5z" />
    <glyph glyph-name="yen" unicode="&#xa5;" horiz-adv-x="578" 
d="M221 194l-191 369h157l107 -251l107 251h157l-197 -369h-140zM104 75v75h379v-75h-379zM104 192v75h379v-71zM222 0v207h139v-207h-139z" />
    <glyph glyph-name="brokenbar" unicode="&#xa6;" horiz-adv-x="260" 
d="M60 307v294h140v-294h-140zM60 -151v294h140v-294h-140z" />
    <glyph glyph-name="section" unicode="&#xa7;" horiz-adv-x="600" 
d="M418 223v-2q23 -15 39 -40t15 -60q-3 -56 -51.5 -88t-116.5 -32q-47 0 -90.5 16t-71.5 50t-30 86h31q0 -2 1.5 -15t9 -31t24.5 -35.5t48 -29t80 -11.5q45 0 72 11t40.5 27t18 31t4.5 22q1 38 -21 59.5t-58 33.5t-76.5 21.5t-76.5 24t-58 40t-20 70.5q1 28 20.5 48.5
t47.5 31.5v1q-31 17 -50 42.5t-18 61.5q2 36 25 61.5t61.5 39.5t84.5 14q47 0 84.5 -16.5t59.5 -48.5t20 -81h-30q1 36 -13 59t-36 35.5t-45.5 17.5t-41.5 5q-59 0 -97.5 -25t-40.5 -63q0 -37 22.5 -58t58 -32.5t76 -20.5t76 -23.5t57.5 -41t20 -72.5q-1 -28 -16 -48
t-38 -35zM162 369q0 -35 17.5 -55.5t47.5 -32t65.5 -19.5t69.5 -18q11 -2 15 -3t6 -2q8 -2 12 -0.5t6 2.5q26 17 33 37t7 29q1 33 -16.5 54t-47 34t-64.5 21.5t-69 17.5q-14 3 -21.5 4.5t-20.5 -6.5q-39 -26 -40 -63z" />
    <glyph glyph-name="dieresis" unicode="&#xa8;" horiz-adv-x="446" 
d="M121 455q-45 0 -60.5 22.5t-15.5 53.5q0 29 15.5 51.5t60.5 22.5t59.5 -22.5t14.5 -51.5q0 -31 -14.5 -53.5t-59.5 -22.5zM327 455q-45 0 -60.5 22.5t-15.5 53.5q0 29 15.5 51.5t60.5 22.5t59.5 -22.5t14.5 -51.5q0 -31 -14.5 -53.5t-59.5 -22.5z" />
    <glyph glyph-name="copyright" unicode="&#xa9;" horiz-adv-x="600" 
d="M328 -10q-61 0 -114 22.5t-93.5 63t-63 93.5t-22.5 114q0 59 22.5 111.5t63 92.5t93.5 63t114 23q59 0 111.5 -23t92.5 -63t63 -92.5t23 -111.5q0 -61 -23 -114t-63 -93.5t-92.5 -63t-111.5 -22.5zM328 63q50 0 90 15t68 43t43 68.5t15 91.5q0 50 -15 90t-43 68.5
t-68 43.5t-90 15q-51 0 -92 -15t-69 -43.5t-43 -68.5t-15 -90q0 -51 15 -91.5t43 -68.5t69 -43t92 -15zM325 116q-45 0 -82 18.5t-59 55t-22 89.5q2 79 49 123.5t117 44.5q50 0 82.5 -18t51 -46t24.5 -60l-81 -15q-7 32 -23 48t-54 16q-44 0 -63.5 -23.5t-19.5 -62.5
q0 -43 19.5 -67.5t63.5 -24.5q32 0 51 18t26 59l81 -26q-6 -33 -25 -62.5t-52.5 -48t-83.5 -18.5z" />
    <glyph glyph-name="ordfeminine" unicode="&#xaa;" horiz-adv-x="350" 
d="M132 406q-58 0 -80 38t-22 105q0 66 22 106t80 40q37 0 56 -13t26 -26l7 -13v52h100v-282h-84l-15 37h-1q1 0 -6.5 -11t-27 -22t-55.5 -11zM172 485q35 0 42.5 19.5t7.5 43.5q0 25 -7.5 44.5t-42.5 19.5q-34 0 -42 -20t-8 -44t8 -43.5t42 -19.5z" />
    <glyph glyph-name="guillemotleft" unicode="&#xab;" horiz-adv-x="600" 
d="M338 544v-92l-201 -157l201 -167v-85l-310 252zM528 544v-102l-201 -147l201 -157v-95l-310 252z" />
    <glyph glyph-name="logicalnot" unicode="&#xac;" horiz-adv-x="420" 
d="M99 181v86h222v-86h-222zM234 103v164h87v-164h-87z" />
    <glyph glyph-name="registered" unicode="&#xae;" horiz-adv-x="408" 
d="M203 229q-48 0 -87 23t-62.5 62t-23.5 86q0 48 23.5 87t62.5 62t87 23q47 0 85.5 -23t61.5 -62t23 -87q0 -47 -23 -86t-61.5 -62t-85.5 -23zM203 272q40 0 68.5 17.5t43.5 46.5t15 64q0 36 -15 65t-43.5 46.5t-68.5 17.5q-41 0 -70 -17.5t-44 -46.5t-15 -65q0 -35 15 -64
t44 -46.5t70 -17.5zM138 322v161h65q33 0 51.5 -11t18.5 -37q0 -22 -11 -34.5t-35 -12.5q16 0 22 -7.5t8 -16t6.5 -13t16.5 0.5v-22q-10 -9 -23.5 -10t-23.5 8.5t-10 31.5q0 9 -2 15.5t-11.5 10t-31.5 0.5v-64h-40zM178 414h20q20 0 28.5 2t8.5 15q0 16 -10.5 18t-30.5 2
h-16v-37z" />
    <glyph glyph-name="macron" unicode="&#xaf;" horiz-adv-x="382" 
d="M40 481v94h302v-94h-302z" />
    <glyph glyph-name="degree" unicode="&#xb0;" horiz-adv-x="295" 
d="M147 338q-61 0 -89 32t-28 84q0 54 27.5 86.5t89.5 32.5q61 0 90.5 -32.5t29.5 -86.5q0 -50 -29.5 -83t-90.5 -33zM145 425q19 0 26.5 9.5t7.5 22.5q0 14 -7.5 24t-26.5 10q-17 0 -25 -10t-8 -24q0 -13 8 -22.5t25 -9.5z" />
    <glyph glyph-name="plusminus" unicode="&#xb1;" horiz-adv-x="420" 
d="M99 36v76h222v-76h-222zM175 155v222h76v-222h-76zM99 230v76h222v-76h-222z" />
    <glyph glyph-name="uni00B2" unicode="&#xb2;" horiz-adv-x="251" 
d="M15 414v56l18 7t43 20t48 31t34 41q15 31 1.5 48t-35.5 17q-23 0 -36 -17.5t-6 -55.5l-63 9q-9 58 25.5 89.5t86.5 31.5q35 0 61.5 -17.5t36.5 -46t-7 -62.5q-13 -25 -33.5 -42.5t-43 -28.5t-40 -16t-24.5 -6h155v-58h-221z" />
    <glyph glyph-name="uni00B3" unicode="&#xb3;" horiz-adv-x="254" 
d="M133 404q-55 0 -87 26.5t-31 78.5l64 10q0 -26 14 -42t42 -16q20 0 31 11t11 26q0 11 -6 17.5t-16.5 9.5t-24.5 3h-25v34h27q15 0 29.5 5t14.5 21q0 17 -12.5 27.5t-34.5 10.5q-15 0 -26 -6.5t-17 -17.5t-6 -23l-59 10q0 8 4.5 22.5t16.5 31t33 27.5t53 11
q52 0 79.5 -20.5t27.5 -55.5q0 -22 -13.5 -41t-42.5 -21q28 -1 44 -19t16 -42q0 -37 -29.5 -57.5t-76.5 -20.5z" />
    <glyph glyph-name="acute" unicode="&#xb4;" horiz-adv-x="240" 
d="M95 461h-62v17l39 97h115v-22z" />
    <glyph glyph-name="uni00B5" unicode="&#xb5;" horiz-adv-x="600" 
d="M92 -158v571h137v-209q0 -21 3.5 -42.5t18 -35.5t47.5 -14t47 14t17 35.5t3 42.5v209h143v-413h-121l-13 31h-3q-8 -11 -15.5 -20.5t-19.5 -15.5t-35 -6q-28 0 -43.5 9t-25.5 22h-3v-178h-137z" />
    <glyph glyph-name="paragraph" unicode="&#xb6;" horiz-adv-x="547" 
d="M248 -88v403h-27q-56 1 -102.5 18.5t-74.5 59.5t-28 115q0 71 27.5 113t74 61t102.5 19h63h53v-789h-88zM390 -89v789h90v-789h-90zM267 610l-4 90h268v-90h-264z" />
    <glyph glyph-name="periodcentered" unicode="&#xb7;" horiz-adv-x="280" 
d="M136 184q-54 0 -72.5 27t-18.5 64q0 35 18.5 62t72.5 27t71.5 -27t17.5 -62q0 -37 -17.5 -64t-71.5 -27z" />
    <glyph glyph-name="cedilla" unicode="&#xb8;" horiz-adv-x="334" 
d="M40 -120l39 64q10 -7 37.5 -15.5t50.5 -8.5q15 0 25.5 4.5t10.5 17.5q0 9 -10.5 14.5t-24.5 5.5q-9 0 -17.5 -2.5t-15.5 -9.5l-57 26l46 101l60 -23l-36 -61q11 8 25.5 12t30.5 4q32 0 61 -17.5t29 -55.5q0 -43 -37.5 -66t-90.5 -23q-31 0 -63.5 8.5t-62.5 24.5z" />
    <glyph glyph-name="uni00B9" unicode="&#xb9;" horiz-adv-x="194" 
d="M75 426v206q-4 -27 -17 -40.5t-26 -18.5t-17 -5v76q5 -1 20.5 -0.5t30 10.5t16.5 37h61v-265h-68zM28 414v59h151v-59h-151z" />
    <glyph glyph-name="ordmasculine" unicode="&#xba;" horiz-adv-x="332" 
d="M166 415q-76 0 -113.5 41.5t-37.5 106.5q-1 63 37 103.5t114 41.5q74 0 112.5 -40t38.5 -105q0 -64 -36.5 -106t-114.5 -42zM166 495q26 0 38.5 10.5t16.5 27t4 32.5q0 17 -4 33.5t-16.5 27.5t-38.5 11t-38.5 -11t-16.5 -27.5t-4 -33.5q0 -16 4 -32.5t16.5 -27
t38.5 -10.5z" />
    <glyph glyph-name="guillemotright" unicode="&#xbb;" horiz-adv-x="530" 
d="M205 544l310 -249l-310 -252v85l201 167l-201 157v92zM15 544l310 -249l-310 -252v95l201 157l-201 147v102z" />
    <glyph glyph-name="onequarter" unicode="&#xbc;" horiz-adv-x="660" 
d="M75 308v206q-4 -27 -17 -40.5t-26 -18.5t-17 -5v76q5 -1 20.5 -0.5t30 10.5t16.5 37h61v-265h-68zM28 296v59h151v-59h-151zM105 7l-61 50l233 248l208 255l61 -50l-224 -242zM411 50v58q36 15 58.5 44.5t33 63.5t10.5 61h75q0 -42 -28 -89t-82 -80h167v-58h-234zM546 0
v138h68v-138h-68z" />
    <glyph glyph-name="onehalf" unicode="&#xbd;" horiz-adv-x="647" 
d="M75 308v206q-4 -27 -17 -40.5t-26 -18.5t-17 -5v76q5 -1 20.5 -0.5t30 10.5t16.5 37h61v-265h-68zM28 296v59h151v-59h-151zM105 7l-61 50l233 248l208 255l61 -50l-224 -242zM411 0v56q11 4 35 15t50.5 27.5t45.5 37.5t19 46q0 20 -12 29t-29 9q-23 0 -36 -17.5
t-6 -55.5l-63 9q-9 58 25.5 89.5t86.5 31.5q28 0 50.5 -11t36.5 -30t14 -44q0 -24 -13 -46.5t-35.5 -40.5t-49 -30t-53.5 -17h155v-58h-221z" />
    <glyph glyph-name="threequarters" unicode="&#xbe;" horiz-adv-x="720" 
d="M133 282q-55 0 -87 26.5t-31 78.5l64 10q0 -26 14 -42t42 -16q20 0 31 11t11 26q0 11 -6 19.5t-16.5 13.5t-24.5 5h-25v34h27q15 0 29.5 8t14.5 24q0 17 -12.5 27.5t-34.5 10.5q-15 0 -26 -6.5t-17 -17.5t-6 -23l-59 10q0 8 4.5 22.5t16.5 31t33 27.5t53 11
q52 0 79.5 -22t27.5 -57q0 -22 -13.5 -42.5t-42.5 -22.5q28 -1 44 -21t16 -44q0 -37 -29.5 -59.5t-76.5 -22.5zM165 7l-61 50l233 248l208 255l61 -50l-224 -242zM471 50v58q36 15 58.5 44.5t33 63.5t10.5 61h75q0 -42 -28 -89t-82 -80h167v-58h-234zM606 0v138h68v-138h-68
z" />
    <glyph glyph-name="questiondown" unicode="&#xbf;" horiz-adv-x="453" 
d="M193 180h127q0 -21 -13 -42.5t-33 -43.5t-40 -43t-34.5 -41.5t-16.5 -39.5q-2 -20 9 -34.5t41 -14.5q27 0 39.5 11t16.5 27t3 29.5t-1 17.5h131q9 -31 4.5 -67t-25 -67t-59.5 -51t-100 -20q-57 0 -102.5 19t-71.5 52.5t-26 77.5q0 35 15.5 62.5t38 49.5t44.5 41
t37.5 37.5t15.5 39.5zM258 383q47 0 63.5 -23t16.5 -54q0 -32 -16.5 -54.5t-63.5 -22.5q-46 0 -62 22.5t-16 54.5q0 33 16 55t62 22z" />
    <glyph glyph-name="Agrave" unicode="&#xc0;" horiz-adv-x="591" 
d="M18 0l162 563h229l168 -563h-149l-131 505l-129 -505h-150zM153 141l-5 106h295l-4 -106h-286zM260 610l-92 92v22h115l39 -97v-17h-62z" />
    <glyph glyph-name="Aacute" unicode="&#xc1;" horiz-adv-x="591" 
d="M18 0l162 563h229l168 -563h-149l-131 505l-129 -505h-150zM153 141l-5 106h295l-4 -106h-286zM328 610h-62v17l39 97h115v-22z" />
    <glyph glyph-name="Acircumflex" unicode="&#xc2;" horiz-adv-x="591" 
d="M18 0l162 563h229l168 -563h-149l-131 505l-129 -505h-150zM153 141l-5 106h295l-4 -106h-286zM140 617v10l127 114h58l126 -114v-10h-120l-32 36h-6l-29 -36h-124z" />
    <glyph glyph-name="Atilde" unicode="&#xc3;" horiz-adv-x="591" 
d="M18 0l162 563h229l168 -563h-149l-131 505l-129 -505h-150zM153 141l-5 106h295l-4 -106h-286zM147 625q0 12 0.5 33.5t7.5 44t26 38.5t56 16q28 0 44.5 -9t26.5 -20t19 -20t21 -9q15 0 17.5 14.5t2.5 39.5h78q0 -19 -1.5 -41.5t-9.5 -43.5t-26.5 -34.5t-52.5 -13.5
q-28 0 -44 9t-26 20t-18 20t-22 9q-16 0 -18.5 -13.5t-2.5 -39.5h-78z" />
    <glyph glyph-name="Adieresis" unicode="&#xc4;" horiz-adv-x="591" 
d="M18 0l162 563h229l168 -563h-149l-131 505l-129 -505h-150zM153 141l-5 106h295l-4 -106h-286zM194 604q-45 0 -60.5 22.5t-15.5 53.5q0 29 15.5 51.5t60.5 22.5t59.5 -22.5t14.5 -51.5q0 -31 -14.5 -53.5t-59.5 -22.5zM400 604q-45 0 -60.5 22.5t-15.5 53.5
q0 29 15.5 51.5t60.5 22.5t59.5 -22.5t14.5 -51.5q0 -31 -14.5 -53.5t-59.5 -22.5z" />
    <glyph glyph-name="Aring" unicode="&#xc5;" horiz-adv-x="591" 
d="M18 0l162 563h229l168 -563h-149l-131 505l-129 -505h-150zM153 141l-5 106h295l-4 -106h-286zM294 621q-56 0 -81.5 29t-25.5 77q0 50 25 79.5t82 29.5q56 0 83 -29.5t27 -79.5q0 -46 -27 -76t-83 -30zM292 701q17 0 24 8t7 21t-7 22t-23 9q-17 0 -24 -9.5t-7 -21.5
q0 -13 7 -21t23 -8z" />
    <glyph glyph-name="AE" unicode="&#xc6;" horiz-adv-x="877" 
d="M404 0v563h426v-119h-289v-103h215v-112h-215v-118h300v-111h-437zM153 141l-5 106h295l-4 -106h-286zM18 0l282 563h132l-264 -563h-150z" />
    <glyph glyph-name="Ccedilla" unicode="&#xc7;" horiz-adv-x="608" 
d="M303 -10q-80 0 -146 32t-105 96t-38 159q1 93 39.5 159.5t104.5 101.5t148 35q85 0 143 -30.5t90.5 -80t41.5 -106.5h-144q-5 38 -28.5 56t-52 23.5t-50.5 5.5q-78 0 -116 -40.5t-38 -112.5q0 -79 37 -123t116 -44q23 0 52 6.5t52.5 26.5t28.5 60h145q-10 -59 -43 -110.5
t-91.5 -82.5t-145.5 -31zM187 -151l39 64q10 -7 37.5 -15.5t50.5 -8.5q15 0 25.5 4.5t10.5 17.5q0 9 -10.5 14.5t-24.5 5.5q-9 0 -17.5 -2.5t-15.5 -9.5l-57 26l46 101l60 -23l-36 -61q11 8 25.5 12t30.5 4q32 0 61 -17.5t29 -55.5q0 -43 -37.5 -66t-90.5 -23
q-31 0 -63.5 8.5t-62.5 24.5z" />
    <glyph glyph-name="Egrave" unicode="&#xc8;" horiz-adv-x="523" 
d="M50 0v563h426v-119h-289v-103h215v-112h-215v-118h300v-111h-437zM226 610l-92 92v22h115l39 -97v-17h-62z" />
    <glyph glyph-name="Eacute" unicode="&#xc9;" horiz-adv-x="523" 
d="M50 0v563h426v-119h-289v-103h215v-112h-215v-118h300v-111h-437zM294 610h-62v17l39 97h115v-22z" />
    <glyph glyph-name="Ecircumflex" unicode="&#xca;" horiz-adv-x="523" 
d="M50 0v563h426v-119h-289v-103h215v-112h-215v-118h300v-111h-437zM106 617v10l127 114h58l126 -114v-10h-120l-32 36h-6l-29 -36h-124z" />
    <glyph glyph-name="Edieresis" unicode="&#xcb;" horiz-adv-x="523" 
d="M50 0v563h426v-119h-289v-103h215v-112h-215v-118h300v-111h-437zM160 604q-45 0 -60.5 22.5t-15.5 53.5q0 29 15.5 51.5t60.5 22.5t59.5 -22.5t14.5 -51.5q0 -31 -14.5 -53.5t-59.5 -22.5zM366 604q-45 0 -60.5 22.5t-15.5 53.5q0 29 15.5 51.5t60.5 22.5t59.5 -22.5
t14.5 -51.5q0 -31 -14.5 -53.5t-59.5 -22.5z" />
    <glyph glyph-name="Igrave" unicode="&#xcc;" horiz-adv-x="415" 
d="M136 18v527h139v-527h-139zM63 0v119h284v-119h-284zM63 444v119h284v-119h-284zM170 610l-92 92v22h115l39 -97v-17h-62z" />
    <glyph glyph-name="Iacute" unicode="&#xcd;" horiz-adv-x="415" 
d="M136 18v527h139v-527h-139zM63 0v119h284v-119h-284zM63 444v119h284v-119h-284zM238 610h-62v17l39 97h115v-22z" />
    <glyph glyph-name="Icircumflex" unicode="&#xce;" horiz-adv-x="415" 
d="M136 18v527h139v-527h-139zM63 0v119h284v-119h-284zM63 444v119h284v-119h-284zM50 617v10l127 114h58l126 -114v-10h-120l-32 36h-6l-29 -36h-124z" />
    <glyph glyph-name="Idieresis" unicode="&#xcf;" horiz-adv-x="415" 
d="M136 18v527h139v-527h-139zM63 0v119h284v-119h-284zM63 444v119h284v-119h-284zM104 604q-45 0 -60.5 22.5t-15.5 53.5q0 29 15.5 51.5t60.5 22.5t59.5 -22.5t14.5 -51.5q0 -31 -14.5 -53.5t-59.5 -22.5zM310 604q-45 0 -60.5 22.5t-15.5 53.5q0 29 15.5 51.5t60.5 22.5
t59.5 -22.5t14.5 -51.5q0 -31 -14.5 -53.5t-59.5 -22.5z" />
    <glyph glyph-name="Eth" unicode="&#xd0;" horiz-adv-x="600" 
d="M60 0v563h109.5h51.5q111 0 193 -31.5t126.5 -93.5t44.5 -156q0 -111 -44.5 -172.5t-126.5 -85.5t-193 -24h-54.5h-106.5zM0 241v90h315v-90h-315zM198 114h44.5h21.5q41 0 72.5 7t54 25.5t34 51.5t11.5 85q0 53 -20.5 88.5t-59 53.5t-92.5 18h-66v-329z" />
    <glyph glyph-name="Ntilde" unicode="&#xd1;" horiz-adv-x="630" 
d="M429 563h146v-563h-268l-105 502h-2v-502h-145v563h248l124 -502h2v502zM166 625q0 12 0.5 33.5t7.5 44t26 38.5t56 16q28 0 44.5 -9t26.5 -20t19 -20t21 -9q15 0 17.5 14.5t2.5 39.5h78q0 -19 -1.5 -41.5t-9.5 -43.5t-26.5 -34.5t-52.5 -13.5q-28 0 -44 9t-26 20t-18 20
t-22 9q-16 0 -18.5 -13.5t-2.5 -39.5h-78z" />
    <glyph glyph-name="Ograve" unicode="&#xd2;" horiz-adv-x="619" 
d="M302 -14q-140 0 -214 79.5t-74 214.5q0 89 32 154.5t96 102t160 36.5q140 0 213 -79.5t73 -213.5q0 -87 -32.5 -153.5t-96 -103.5t-157.5 -37zM300 121q51 0 84.5 21.5t50 58t16.5 79.5q0 44 -16.5 81t-50 59t-84.5 22q-73 0 -111.5 -46t-38.5 -116q0 -42 16.5 -78.5
t49.5 -58.5t84 -22zM274 610l-92 92v22h115l39 -97v-17h-62z" />
    <glyph glyph-name="Oacute" unicode="&#xd3;" horiz-adv-x="619" 
d="M302 -14q-140 0 -214 79.5t-74 214.5q0 89 32 154.5t96 102t160 36.5q140 0 213 -79.5t73 -213.5q0 -87 -32.5 -153.5t-96 -103.5t-157.5 -37zM300 121q51 0 84.5 21.5t50 58t16.5 79.5q0 44 -16.5 81t-50 59t-84.5 22q-73 0 -111.5 -46t-38.5 -116q0 -42 16.5 -78.5
t49.5 -58.5t84 -22zM342 610h-62v17l39 97h115v-22z" />
    <glyph glyph-name="Ocircumflex" unicode="&#xd4;" horiz-adv-x="619" 
d="M302 -14q-140 0 -214 79.5t-74 214.5q0 89 32 154.5t96 102t160 36.5q140 0 213 -79.5t73 -213.5q0 -87 -32.5 -153.5t-96 -103.5t-157.5 -37zM300 121q51 0 84.5 21.5t50 58t16.5 79.5q0 44 -16.5 81t-50 59t-84.5 22q-73 0 -111.5 -46t-38.5 -116q0 -42 16.5 -78.5
t49.5 -58.5t84 -22zM154 617v10l127 114h58l126 -114v-10h-120l-32 36h-6l-29 -36h-124z" />
    <glyph glyph-name="Otilde" unicode="&#xd5;" horiz-adv-x="619" 
d="M302 -14q-140 0 -214 79.5t-74 214.5q0 89 32 154.5t96 102t160 36.5q140 0 213 -79.5t73 -213.5q0 -87 -32.5 -153.5t-96 -103.5t-157.5 -37zM300 121q51 0 84.5 21.5t50 58t16.5 79.5q0 44 -16.5 81t-50 59t-84.5 22q-73 0 -111.5 -46t-38.5 -116q0 -42 16.5 -78.5
t49.5 -58.5t84 -22zM161 625q0 12 0.5 33.5t7.5 44t26 38.5t56 16q28 0 44.5 -9t26.5 -20t19 -20t21 -9q15 0 17.5 14.5t2.5 39.5h78q0 -19 -1.5 -41.5t-9.5 -43.5t-26.5 -34.5t-52.5 -13.5q-28 0 -44 9t-26 20t-18 20t-22 9q-16 0 -18.5 -13.5t-2.5 -39.5h-78z" />
    <glyph glyph-name="Odieresis" unicode="&#xd6;" horiz-adv-x="619" 
d="M302 -14q-140 0 -214 79.5t-74 214.5q0 89 32 154.5t96 102t160 36.5q140 0 213 -79.5t73 -213.5q0 -87 -32.5 -153.5t-96 -103.5t-157.5 -37zM300 121q51 0 84.5 21.5t50 58t16.5 79.5q0 44 -16.5 81t-50 59t-84.5 22q-73 0 -111.5 -46t-38.5 -116q0 -42 16.5 -78.5
t49.5 -58.5t84 -22zM208 604q-45 0 -60.5 22.5t-15.5 53.5q0 29 15.5 51.5t60.5 22.5t59.5 -22.5t14.5 -51.5q0 -31 -14.5 -53.5t-59.5 -22.5zM414 604q-45 0 -60.5 22.5t-15.5 53.5q0 29 15.5 51.5t60.5 22.5t59.5 -22.5t14.5 -51.5q0 -31 -14.5 -53.5t-59.5 -22.5z" />
    <glyph glyph-name="multiply" unicode="&#xd7;" horiz-adv-x="420" 
d="M277 87l-66 66l-68 -68l-61 62l67 67l-67 68l61 61l68 -67l66 66l61 -61l-66 -67l66 -66z" />
    <glyph glyph-name="Oslash" unicode="&#xd8;" horiz-adv-x="600" 
d="M81 -27l430 622l30 -17l-430 -622zM302 -14q-140 0 -214 79.5t-74 214.5q0 89 32 154.5t96 102t160 36.5q140 0 213 -79.5t73 -213.5q0 -87 -32.5 -153.5t-96 -103.5t-157.5 -37zM300 121q51 0 84.5 21.5t50 58t16.5 79.5q0 44 -16.5 81t-50 59t-84.5 22
q-73 0 -111.5 -46t-38.5 -116q0 -42 16.5 -78.5t49.5 -58.5t84 -22z" />
    <glyph glyph-name="Ugrave" unicode="&#xd9;" horiz-adv-x="614" 
d="M310 -14q-126 0 -190.5 66.5t-64.5 187.5v323h150v-322q0 -42 11 -66.5t27.5 -36.5t34.5 -15.5t32 -3.5q23 0 47.5 7t41.5 33t17 82v322h150v-323q0 -123 -63.5 -188.5t-192.5 -65.5zM271 610l-92 92v22h115l39 -97v-17h-62z" />
    <glyph glyph-name="Uacute" unicode="&#xda;" horiz-adv-x="614" 
d="M310 -14q-126 0 -190.5 66.5t-64.5 187.5v323h150v-322q0 -42 11 -66.5t27.5 -36.5t34.5 -15.5t32 -3.5q23 0 47.5 7t41.5 33t17 82v322h150v-323q0 -123 -63.5 -188.5t-192.5 -65.5zM339 610h-62v17l39 97h115v-22z" />
    <glyph glyph-name="Ucircumflex" unicode="&#xdb;" horiz-adv-x="614" 
d="M310 -14q-126 0 -190.5 66.5t-64.5 187.5v323h150v-322q0 -42 11 -66.5t27.5 -36.5t34.5 -15.5t32 -3.5q23 0 47.5 7t41.5 33t17 82v322h150v-323q0 -123 -63.5 -188.5t-192.5 -65.5zM151 617v10l127 114h58l126 -114v-10h-120l-32 36h-6l-29 -36h-124z" />
    <glyph glyph-name="Udieresis" unicode="&#xdc;" horiz-adv-x="614" 
d="M310 -14q-126 0 -190.5 66.5t-64.5 187.5v323h150v-322q0 -42 11 -66.5t27.5 -36.5t34.5 -15.5t32 -3.5q23 0 47.5 7t41.5 33t17 82v322h150v-323q0 -123 -63.5 -188.5t-192.5 -65.5zM205 604q-45 0 -60.5 22.5t-15.5 53.5q0 29 15.5 51.5t60.5 22.5t59.5 -22.5
t14.5 -51.5q0 -31 -14.5 -53.5t-59.5 -22.5zM411 604q-45 0 -60.5 22.5t-15.5 53.5q0 29 15.5 51.5t60.5 22.5t59.5 -22.5t14.5 -51.5q0 -31 -14.5 -53.5t-59.5 -22.5z" />
    <glyph glyph-name="Yacute" unicode="&#xdd;" horiz-adv-x="464" 
d="M162 194l-191 369h157l107 -251l107 251h157l-197 -369h-140zM163 0v207h139v-207h-139zM264 610h-62v17l39 97h115v-22z" />
    <glyph glyph-name="Thorn" unicode="&#xde;" horiz-adv-x="500" 
d="M190 0h-140v563h140v-563zM171 471h109q96 0 151.5 -49.5t55.5 -148.5q0 -84 -57 -132.5t-150 -48.5h-108v98h87q42 0 72 21.5t30 63.5q0 43 -29.5 63.5t-72.5 20.5h-88v112z" />
    <glyph glyph-name="germandbls" unicode="&#xdf;" horiz-adv-x="637" 
d="M429 -10q-61 0 -100.5 16.5t-61 43.5t-30 58t-8.5 61h119l1 -9t6 -20t18 -20t37 -9t38 9.5t20 23.5t6 27q0 26 -19 43t-46.5 29.5t-55 24.5t-46.5 27.5t-19 38.5q0 21 11 31.5t27.5 16.5t32.5 12.5t27 19t11 37.5h-11h-26h-26h-11h-128v-451h-140v563h268q24 0 58.5 -0.5
t67.5 -7.5t55.5 -24.5t22.5 -52.5q0 -31 -13 -49.5t-32.5 -29.5t-39 -19t-32.5 -17.5t-13 -26.5t21.5 -28t53.5 -21.5t64.5 -27t54 -44t21.5 -72.5q0 -48 -27 -82t-68.5 -52.5t-87.5 -18.5z" />
    <glyph glyph-name="agrave" unicode="&#xe0;" horiz-adv-x="480" 
d="M174 -10q-56 0 -89 25.5t-47 72.5t-14 112t14 113t47 74.5t89 26.5q41 0 66 -11.5t39 -26.5t19.5 -26.5l5.5 -11.5h2v76h144v-414h-122l-22 56h-2q1 0 -5 -10t-20.5 -23t-40 -23t-64.5 -10zM233 105q34 0 49.5 13.5t19.5 35.5t4 45q0 24 -4 45.5t-19.5 34.5t-49.5 13
t-49.5 -13.5t-19.5 -34.5t-4 -45t4 -45.5t19.5 -35t49.5 -13.5zM204 461l-92 92v22h115l39 -97v-17h-62z" />
    <glyph glyph-name="aacute" unicode="&#xe1;" horiz-adv-x="480" 
d="M174 -10q-56 0 -89 25.5t-47 72.5t-14 112t14 113t47 74.5t89 26.5q41 0 66 -11.5t39 -26.5t19.5 -26.5l5.5 -11.5h2v76h144v-414h-122l-22 56h-2q1 0 -5 -10t-20.5 -23t-40 -23t-64.5 -10zM233 105q34 0 49.5 13.5t19.5 35.5t4 45q0 24 -4 45.5t-19.5 34.5t-49.5 13
t-49.5 -13.5t-19.5 -34.5t-4 -45t4 -45.5t19.5 -35t49.5 -13.5zM272 461h-62v17l39 97h115v-22z" />
    <glyph glyph-name="acircumflex" unicode="&#xe2;" horiz-adv-x="480" 
d="M174 -10q-56 0 -89 25.5t-47 72.5t-14 112t14 113t47 74.5t89 26.5q41 0 66 -11.5t39 -26.5t19.5 -26.5l5.5 -11.5h2v76h144v-414h-122l-22 56h-2q1 0 -5 -10t-20.5 -23t-40 -23t-64.5 -10zM233 105q34 0 49.5 13.5t19.5 35.5t4 45q0 24 -4 45.5t-19.5 34.5t-49.5 13
t-49.5 -13.5t-19.5 -34.5t-4 -45t4 -45.5t19.5 -35t49.5 -13.5zM84 468v10l127 114h58l126 -114v-10h-120l-32 36h-6l-29 -36h-124z" />
    <glyph glyph-name="atilde" unicode="&#xe3;" horiz-adv-x="480" 
d="M174 -10q-56 0 -89 25.5t-47 72.5t-14 112t14 113t47 74.5t89 26.5q41 0 66 -11.5t39 -26.5t19.5 -26.5l5.5 -11.5h2v76h144v-414h-122l-22 56h-2q1 0 -5 -10t-20.5 -23t-40 -23t-64.5 -10zM233 105q34 0 49.5 13.5t19.5 35.5t4 45q0 24 -4 45.5t-19.5 34.5t-49.5 13
t-49.5 -13.5t-19.5 -34.5t-4 -45t4 -45.5t19.5 -35t49.5 -13.5zM91 476q0 12 0.5 33.5t7.5 44t26 38.5t56 16q28 0 44.5 -9t26.5 -20t19 -20t21 -9q15 0 17.5 14.5t2.5 39.5h78q0 -19 -1.5 -41.5t-9.5 -43.5t-26.5 -34.5t-52.5 -13.5q-28 0 -44 9t-26 20t-18 20t-22 9
q-16 0 -18.5 -13.5t-2.5 -39.5h-78z" />
    <glyph glyph-name="adieresis" unicode="&#xe4;" horiz-adv-x="480" 
d="M174 -10q-56 0 -89 25.5t-47 72.5t-14 112t14 113t47 74.5t89 26.5q41 0 66 -11.5t39 -26.5t19.5 -26.5l5.5 -11.5h2v76h144v-414h-122l-22 56h-2q1 0 -5 -10t-20.5 -23t-40 -23t-64.5 -10zM233 105q34 0 49.5 13.5t19.5 35.5t4 45q0 24 -4 45.5t-19.5 34.5t-49.5 13
t-49.5 -13.5t-19.5 -34.5t-4 -45t4 -45.5t19.5 -35t49.5 -13.5zM138 455q-45 0 -60.5 22.5t-15.5 53.5q0 29 15.5 51.5t60.5 22.5t59.5 -22.5t14.5 -51.5q0 -31 -14.5 -53.5t-59.5 -22.5zM344 455q-45 0 -60.5 22.5t-15.5 53.5q0 29 15.5 51.5t60.5 22.5t59.5 -22.5
t14.5 -51.5q0 -31 -14.5 -53.5t-59.5 -22.5z" />
    <glyph glyph-name="aring" unicode="&#xe5;" horiz-adv-x="480" 
d="M174 -10q-56 0 -89 25.5t-47 72.5t-14 112t14 113t47 74.5t89 26.5q41 0 66 -11.5t39 -26.5t19.5 -26.5l5.5 -11.5h2v76h144v-414h-122l-22 56h-2q1 0 -5 -10t-20.5 -23t-40 -23t-64.5 -10zM233 105q34 0 49.5 13.5t19.5 35.5t4 45q0 24 -4 45.5t-19.5 34.5t-49.5 13
t-49.5 -13.5t-19.5 -34.5t-4 -45t4 -45.5t19.5 -35t49.5 -13.5zM238 472q-56 0 -81.5 29t-25.5 77q0 50 25 79.5t82 29.5q56 0 83 -29.5t27 -79.5q0 -46 -27 -76t-83 -30zM236 552q17 0 24 8t7 21t-7 22t-23 9q-17 0 -24 -9.5t-7 -21.5q0 -13 7 -21t23 -8z" />
    <glyph glyph-name="ae" unicode="&#xe6;" horiz-adv-x="726" 
d="M141 0q-56 0 -90.5 30.5t-34.5 79.5q0 31 13.5 52t37 34.5t53 22.5t60.5 16q43 10 64.5 17t28.5 15.5t7 21.5q0 11 -6 19t-17 12.5t-25 4.5q-15 0 -30.5 -6.5t-24.5 -22.5t-5 -45h-130q0 65 27.5 103.5t71.5 55t92 16.5q35 0 69 -8.5t60 -26.5q25 17 58.5 26.5t77.5 9.5
q54 0 98 -26.5t70 -72t26 -103.5v-26h-278q0 -40 22.5 -59.5t59.5 -19.5q32 0 46.5 14t20.5 37l133 -27q-12 -38 -36 -71t-64 -53t-99 -20q-60 0 -101.5 18t-66.5 49t-37 68q-1 -9 -8.5 -31t-24 -46t-45.5 -41t-73 -17zM201 97q19 3 37 22t30 47.5t12 59.5q-6 -7 -25 -13
t-31 -11q-17 -6 -33 -17t-25.5 -25.5t-8.5 -32.5q2 -20 17.5 -25.5t26.5 -4.5zM414 267h138l0.5 9.5t-3.5 22.5t-17 22.5t-40 9.5t-43 -9.5t-23.5 -22.5t-9.5 -22.5z" />
    <glyph glyph-name="ccedilla" unicode="&#xe7;" horiz-adv-x="486" 
d="M245 -10q-58 0 -107.5 23t-79.5 70t-30 117q2 69 31 117t78 73.5t109 25.5q70 0 116.5 -27t70 -67.5t23.5 -81.5h-127q-5 29 -24 43.5t-54 14.5q-30 0 -49 -11t-28.5 -30t-9.5 -45q0 -47 21 -75t68 -28q27 0 49 15t27 49h127q0 -44 -23.5 -86t-70.5 -69.5t-117 -27.5z
M126 -151l39 64q10 -7 37.5 -15.5t50.5 -8.5q15 0 25.5 4.5t10.5 17.5q0 9 -10.5 14.5t-24.5 5.5q-9 0 -17.5 -2.5t-15.5 -9.5l-57 26l46 101l60 -23l-36 -61q11 8 25.5 12t30.5 4q32 0 61 -17.5t29 -55.5q0 -43 -37.5 -66t-90.5 -23q-31 0 -63.5 8.5t-62.5 24.5z" />
    <glyph glyph-name="egrave" unicode="&#xe8;" 
d="M235 -10q-75 0 -121 30t-67.5 77.5t-23.5 99.5q-2 68 24 117.5t73.5 76t109.5 26.5q59 0 105.5 -24.5t73 -69.5t26.5 -108v-10.5v-15.5h-280q0 -44 21.5 -64t55.5 -20q29 0 46.5 13.5t20.5 34.5h135q-3 -44 -26 -81.5t-66 -59.5t-107 -22zM157 245h138l-0.5 9t-6.5 21
t-20 21t-41 9t-42 -9t-20.5 -21t-6.5 -21zM201 461l-92 92v22h115l39 -97v-17h-62z" />
    <glyph glyph-name="eacute" unicode="&#xe9;" 
d="M235 -10q-75 0 -121 30t-67.5 77.5t-23.5 99.5q-2 68 24 117.5t73.5 76t109.5 26.5q59 0 105.5 -24.5t73 -69.5t26.5 -108v-10.5v-15.5h-280q0 -44 21.5 -64t55.5 -20q29 0 46.5 13.5t20.5 34.5h135q-3 -44 -26 -81.5t-66 -59.5t-107 -22zM157 245h138l-0.5 9t-6.5 21
t-20 21t-41 9t-42 -9t-20.5 -21t-6.5 -21zM269 461h-62v17l39 97h115v-22z" />
    <glyph glyph-name="ecircumflex" unicode="&#xea;" 
d="M235 -10q-75 0 -121 30t-67.5 77.5t-23.5 99.5q-2 68 24 117.5t73.5 76t109.5 26.5q59 0 105.5 -24.5t73 -69.5t26.5 -108v-10.5v-15.5h-280q0 -44 21.5 -64t55.5 -20q29 0 46.5 13.5t20.5 34.5h135q-3 -44 -26 -81.5t-66 -59.5t-107 -22zM157 245h138l-0.5 9t-6.5 21
t-20 21t-41 9t-42 -9t-20.5 -21t-6.5 -21zM81 468v10l127 114h58l126 -114v-10h-120l-32 36h-6l-29 -36h-124z" />
    <glyph glyph-name="edieresis" unicode="&#xeb;" 
d="M235 -10q-75 0 -121 30t-67.5 77.5t-23.5 99.5q-2 68 24 117.5t73.5 76t109.5 26.5q59 0 105.5 -24.5t73 -69.5t26.5 -108v-10.5v-15.5h-280q0 -44 21.5 -64t55.5 -20q29 0 46.5 13.5t20.5 34.5h135q-3 -44 -26 -81.5t-66 -59.5t-107 -22zM157 245h138l-0.5 9t-6.5 21
t-20 21t-41 9t-42 -9t-20.5 -21t-6.5 -21zM135 455q-45 0 -60.5 22.5t-15.5 53.5q0 29 15.5 51.5t60.5 22.5t59.5 -22.5t14.5 -51.5q0 -31 -14.5 -53.5t-59.5 -22.5zM341 455q-45 0 -60.5 22.5t-15.5 53.5q0 29 15.5 51.5t60.5 22.5t59.5 -22.5t14.5 -51.5
q0 -31 -14.5 -53.5t-59.5 -22.5z" />
    <glyph glyph-name="igrave" unicode="&#xec;" horiz-adv-x="230" 
d="M45 0v414h140v-414h-140zM79 461l-92 92v22h115l39 -97v-17h-62z" />
    <glyph glyph-name="iacute" unicode="&#xed;" horiz-adv-x="230" 
d="M45 0v414h140v-414h-140zM147 461h-62v17l39 97h115v-22z" />
    <glyph glyph-name="icircumflex" unicode="&#xee;" horiz-adv-x="230" 
d="M45 0v414h140v-414h-140zM-41 468v10l127 114h58l126 -114v-10h-120l-32 36h-6l-29 -36h-124z" />
    <glyph glyph-name="idieresis" unicode="&#xef;" horiz-adv-x="230" 
d="M45 0v414h140v-414h-140zM13 455q-45 0 -60.5 22.5t-15.5 53.5q0 29 15.5 51.5t60.5 22.5t59.5 -22.5t14.5 -51.5q0 -31 -14.5 -53.5t-59.5 -22.5zM219 455q-45 0 -60.5 22.5t-15.5 53.5q0 29 15.5 51.5t60.5 22.5t59.5 -22.5t14.5 -51.5q0 -31 -14.5 -53.5t-59.5 -22.5z
" />
    <glyph glyph-name="eth" unicode="&#xf0;" horiz-adv-x="538" 
d="M258 -10q-75 0 -123.5 31.5t-72.5 80.5t-24 101q0 49 20 92.5t59 71t96 27.5q36 0 63 -9t46 -22.5t31 -27t17.5 -23l5.5 -9.5h2q-9 33 -33.5 64t-55.5 57t-61 45.5t-50.5 31t-23.5 12.5l107 117q59 -31 103 -75t74 -95.5t45 -106.5t15 -108q0 -69 -26 -127t-79.5 -93
t-134.5 -35zM384 181q0 37 -17.5 61.5t-44.5 37t-56 12.5q-26 0 -47 -9.5t-33 -29t-12 -48.5q0 -34 16.5 -56t41 -33t48.5 -11q35 0 66 19t38 57zM203 418l-50 37l246 149l50 -37z" />
    <glyph glyph-name="ntilde" unicode="&#xf1;" horiz-adv-x="486" 
d="M35 0v414h121l23 -76h2l5.5 11.5t19.5 26.5t39.5 26.5t65.5 11.5q45 0 72.5 -16t42 -41.5t19.5 -55t5.5 -57t0.5 -46.5v-198h-136v199q0 22 -3.5 43t-17.5 35.5t-48 14.5q-33 0 -47 -14.5t-17 -35.5t-3 -43v-199h-144zM94 476q0 12 0.5 33.5t7.5 44t26 38.5t56 16
q28 0 44.5 -9t26.5 -20t19 -20t21 -9q15 0 17.5 14.5t2.5 39.5h78q0 -19 -1.5 -41.5t-9.5 -43.5t-26.5 -34.5t-52.5 -13.5q-28 0 -44 9t-26 20t-18 20t-22 9q-16 0 -18.5 -13.5t-2.5 -39.5h-78z" />
    <glyph glyph-name="ograve" unicode="&#xf2;" horiz-adv-x="487" 
d="M239 -10q-73 0 -122 27.5t-73 75.5t-24 109q0 62 24 110t73 75.5t122 27.5q107 0 162.5 -58.5t55.5 -154.5q0 -60 -23.5 -108t-71.5 -76t-123 -28zM239 106q37 0 55 15t23.5 38.5t5.5 47.5q0 25 -5.5 48t-23.5 38.5t-55 15.5t-55.5 -15.5t-24 -38.5t-5.5 -48
q0 -24 5.5 -47.5t24 -38.5t55.5 -15zM208 461l-92 92v22h115l39 -97v-17h-62z" />
    <glyph glyph-name="oacute" unicode="&#xf3;" horiz-adv-x="487" 
d="M239 -10q-73 0 -122 27.5t-73 75.5t-24 109q0 62 24 110t73 75.5t122 27.5q107 0 162.5 -58.5t55.5 -154.5q0 -60 -23.5 -108t-71.5 -76t-123 -28zM239 106q37 0 55 15t23.5 38.5t5.5 47.5q0 25 -5.5 48t-23.5 38.5t-55 15.5t-55.5 -15.5t-24 -38.5t-5.5 -48
q0 -24 5.5 -47.5t24 -38.5t55.5 -15zM276 461h-62v17l39 97h115v-22z" />
    <glyph glyph-name="ocircumflex" unicode="&#xf4;" horiz-adv-x="487" 
d="M239 -10q-73 0 -122 27.5t-73 75.5t-24 109q0 62 24 110t73 75.5t122 27.5q107 0 162.5 -58.5t55.5 -154.5q0 -60 -23.5 -108t-71.5 -76t-123 -28zM239 106q37 0 55 15t23.5 38.5t5.5 47.5q0 25 -5.5 48t-23.5 38.5t-55 15.5t-55.5 -15.5t-24 -38.5t-5.5 -48
q0 -24 5.5 -47.5t24 -38.5t55.5 -15zM88 468v10l127 114h58l126 -114v-10h-120l-32 36h-6l-29 -36h-124z" />
    <glyph glyph-name="otilde" unicode="&#xf5;" horiz-adv-x="487" 
d="M239 -10q-73 0 -122 27.5t-73 75.5t-24 109q0 62 24 110t73 75.5t122 27.5q107 0 162.5 -58.5t55.5 -154.5q0 -60 -23.5 -108t-71.5 -76t-123 -28zM239 106q37 0 55 15t23.5 38.5t5.5 47.5q0 25 -5.5 48t-23.5 38.5t-55 15.5t-55.5 -15.5t-24 -38.5t-5.5 -48
q0 -24 5.5 -47.5t24 -38.5t55.5 -15zM95 476q0 12 0.5 33.5t7.5 44t26 38.5t56 16q28 0 44.5 -9t26.5 -20t19 -20t21 -9q15 0 17.5 14.5t2.5 39.5h78q0 -19 -1.5 -41.5t-9.5 -43.5t-26.5 -34.5t-52.5 -13.5q-28 0 -44 9t-26 20t-18 20t-22 9q-16 0 -18.5 -13.5t-2.5 -39.5
h-78z" />
    <glyph glyph-name="odieresis" unicode="&#xf6;" horiz-adv-x="487" 
d="M239 -10q-73 0 -122 27.5t-73 75.5t-24 109q0 62 24 110t73 75.5t122 27.5q107 0 162.5 -58.5t55.5 -154.5q0 -60 -23.5 -108t-71.5 -76t-123 -28zM239 106q37 0 55 15t23.5 38.5t5.5 47.5q0 25 -5.5 48t-23.5 38.5t-55 15.5t-55.5 -15.5t-24 -38.5t-5.5 -48
q0 -24 5.5 -47.5t24 -38.5t55.5 -15zM142 455q-45 0 -60.5 22.5t-15.5 53.5q0 29 15.5 51.5t60.5 22.5t59.5 -22.5t14.5 -51.5q0 -31 -14.5 -53.5t-59.5 -22.5zM348 455q-45 0 -60.5 22.5t-15.5 53.5q0 29 15.5 51.5t60.5 22.5t59.5 -22.5t14.5 -51.5q0 -31 -14.5 -53.5
t-59.5 -22.5z" />
    <glyph glyph-name="divide" unicode="&#xf7;" horiz-adv-x="420" 
d="M99 178v94h222v-94h-222zM209 307q-23 0 -34 12.5t-11 31.5q-1 19 10.5 31.5t34.5 12.5q22 0 33.5 -12t11.5 -32q0 -19 -11 -31.5t-34 -12.5zM209 51q-23 0 -34 12.5t-11 31.5q-1 19 10.5 31.5t34.5 12.5q22 0 33.5 -12t11.5 -32q0 -19 -11 -31.5t-34 -12.5z" />
    <glyph glyph-name="oslash" unicode="&#xf8;" horiz-adv-x="479" 
d="M62 -27l306 487l30 -17l-306 -487zM239 -10q-73 0 -122 27.5t-73 75.5t-24 109q0 62 24 110t73 75.5t122 27.5q107 0 162.5 -58.5t55.5 -154.5q0 -60 -23.5 -108t-71.5 -76t-123 -28zM239 106q37 0 55 15t23.5 38.5t5.5 47.5q0 25 -5.5 48t-23.5 38.5t-55 15.5
t-55.5 -15.5t-24 -38.5t-5.5 -48q0 -24 5.5 -47.5t24 -38.5t55.5 -15z" />
    <glyph glyph-name="ugrave" unicode="&#xf9;" horiz-adv-x="476" 
d="M170 -10q-45 0 -72.5 16t-42 41.5t-19.5 55t-5.5 57t-0.5 46.5v208h136v-209q0 -21 3.5 -42.5t18 -36t47.5 -14.5t47 14.5t17 36t3 42.5v209h144v-414h-121l-23 66h-2l-5.5 -11.5t-19.5 -26.5t-39.5 -26.5t-65.5 -11.5zM202 461l-92 92v22h115l39 -97v-17h-62z" />
    <glyph glyph-name="uacute" unicode="&#xfa;" horiz-adv-x="476" 
d="M170 -10q-45 0 -72.5 16t-42 41.5t-19.5 55t-5.5 57t-0.5 46.5v208h136v-209q0 -21 3.5 -42.5t18 -36t47.5 -14.5t47 14.5t17 36t3 42.5v209h144v-414h-121l-23 66h-2l-5.5 -11.5t-19.5 -26.5t-39.5 -26.5t-65.5 -11.5zM270 461h-62v17l39 97h115v-22z" />
    <glyph glyph-name="ucircumflex" unicode="&#xfb;" horiz-adv-x="476" 
d="M170 -10q-45 0 -72.5 16t-42 41.5t-19.5 55t-5.5 57t-0.5 46.5v208h136v-209q0 -21 3.5 -42.5t18 -36t47.5 -14.5t47 14.5t17 36t3 42.5v209h144v-414h-121l-23 66h-2l-5.5 -11.5t-19.5 -26.5t-39.5 -26.5t-65.5 -11.5zM82 468v10l127 114h58l126 -114v-10h-120l-32 36
h-6l-29 -36h-124z" />
    <glyph glyph-name="udieresis" unicode="&#xfc;" horiz-adv-x="476" 
d="M170 -10q-45 0 -72.5 16t-42 41.5t-19.5 55t-5.5 57t-0.5 46.5v208h136v-209q0 -21 3.5 -42.5t18 -36t47.5 -14.5t47 14.5t17 36t3 42.5v209h144v-414h-121l-23 66h-2l-5.5 -11.5t-19.5 -26.5t-39.5 -26.5t-65.5 -11.5zM136 455q-45 0 -60.5 22.5t-15.5 53.5
q0 29 15.5 51.5t60.5 22.5t59.5 -22.5t14.5 -51.5q0 -31 -14.5 -53.5t-59.5 -22.5zM342 455q-45 0 -60.5 22.5t-15.5 53.5q0 29 15.5 51.5t60.5 22.5t59.5 -22.5t14.5 -51.5q0 -31 -14.5 -53.5t-59.5 -22.5z" />
    <glyph glyph-name="yacute" unicode="&#xfd;" 
d="M0 -199v106h70q15 0 28 1.5t25.5 13t25.5 41.5l12 28l-161 423h143l85 -282l93 282h143l-187 -462q-21 -51 -39 -81t-38 -45t-45.5 -20t-61.5 -5h-93zM269 461h-62v17l39 97h115v-22z" />
    <glyph glyph-name="thorn" unicode="&#xfe;" horiz-adv-x="512" 
d="M331 -10q-27 0 -48.5 8.5t-37.5 21t-27.5 25t-17 22t-6.5 11.5v226q0 1 7 17.5t23 38t42.5 37.5t65.5 16q52 0 84 -30t46.5 -77.5t14.5 -99.5q0 -53 -14 -103t-46 -81.5t-86 -31.5zM50 -199v762h144v-491v-271h-144zM255 105q31 0 45.5 13.5t18.5 34.5t4 44q0 24 -4 45.5
t-18 35.5t-44 14q-29 0 -43.5 -11.5t-19 -32.5t-4.5 -51q0 -27 4 -48t17.5 -32.5t43.5 -11.5z" />
    <glyph glyph-name="ydieresis" unicode="&#xff;" 
d="M0 -199v106h70q15 0 28 1.5t25.5 13t25.5 41.5l12 28l-161 423h143l85 -282l93 282h143l-187 -462q-21 -51 -39 -81t-38 -45t-45.5 -20t-61.5 -5h-93zM135 455q-45 0 -60.5 22.5t-15.5 53.5q0 29 15.5 51.5t60.5 22.5t59.5 -22.5t14.5 -51.5q0 -31 -14.5 -53.5
t-59.5 -22.5zM341 455q-45 0 -60.5 22.5t-15.5 53.5q0 29 15.5 51.5t60.5 22.5t59.5 -22.5t14.5 -51.5q0 -31 -14.5 -53.5t-59.5 -22.5z" />
    <glyph glyph-name="Amacron" unicode="&#x100;" horiz-adv-x="591" 
d="M18 0l162 563h229l168 -563h-149l-131 505l-129 -505h-150zM153 141l-5 106h295l-4 -106h-286zM145 630v94h302v-94h-302z" />
    <glyph glyph-name="amacron" unicode="&#x101;" horiz-adv-x="480" 
d="M174 -10q-56 0 -89 25.5t-47 72.5t-14 112t14 113t47 74.5t89 26.5q41 0 66 -11.5t39 -26.5t19.5 -26.5l5.5 -11.5h2v76h144v-414h-122l-22 56h-2q1 0 -5 -10t-20.5 -23t-40 -23t-64.5 -10zM233 105q34 0 49.5 13.5t19.5 35.5t4 45q0 24 -4 45.5t-19.5 34.5t-49.5 13
t-49.5 -13.5t-19.5 -34.5t-4 -45t4 -45.5t19.5 -35t49.5 -13.5zM89 481v94h302v-94h-302z" />
    <glyph glyph-name="Abreve" unicode="&#x102;" horiz-adv-x="591" 
d="M18 0l162 563h229l168 -563h-149l-131 505l-129 -505h-150zM153 141l-5 106h295l-4 -106h-286zM296 613q-70 0 -108.5 32t-38.5 87h97q0 -25 14 -35.5t36 -10.5q23 0 36 10t13 36h97q0 -55 -37.5 -87t-108.5 -32z" />
    <glyph glyph-name="abreve" unicode="&#x103;" horiz-adv-x="480" 
d="M174 -10q-56 0 -89 25.5t-47 72.5t-14 112t14 113t47 74.5t89 26.5q41 0 66 -11.5t39 -26.5t19.5 -26.5l5.5 -11.5h2v76h144v-414h-122l-22 56h-2q1 0 -5 -10t-20.5 -23t-40 -23t-64.5 -10zM233 105q34 0 49.5 13.5t19.5 35.5t4 45q0 24 -4 45.5t-19.5 34.5t-49.5 13
t-49.5 -13.5t-19.5 -34.5t-4 -45t4 -45.5t19.5 -35t49.5 -13.5zM240 464q-70 0 -108.5 32t-38.5 87h97q0 -25 14 -35.5t36 -10.5q23 0 36 10t13 36h97q0 -55 -37.5 -87t-108.5 -32z" />
    <glyph glyph-name="Aogonek" unicode="&#x104;" horiz-adv-x="591" 
d="M495 -180q-24 0 -50 9t-44 29.5t-18 56.5q0 31 17 55.5t42 41.5t50 28.5t42 16.5l17 5l26 -62l-14 -4t-33 -11.5t-33 -18.5t-14 -26q0 -10 7 -16t18 -6q12 0 21 6.5t14 13l5 6.5l71 -64l-13.5 -15t-40.5 -30t-70 -15zM18 0l162 563h229l168 -563h-149l-131 505l-129 -505
h-150zM153 141l-5 106h295l-4 -106h-286z" />
    <glyph glyph-name="aogonek" unicode="&#x105;" horiz-adv-x="480" 
d="M174 -10q-56 0 -89 25.5t-47 72.5t-14 112t14 113t47 74.5t89 26.5q41 0 66 -11.5t39 -26.5t19.5 -26.5l5.5 -11.5h2v76h144v-414h-122l-22 56h-2q1 0 -5 -10t-20.5 -23t-40 -23t-64.5 -10zM233 105q34 0 49.5 13.5t19.5 35.5t4 45q0 24 -4 45.5t-19.5 34.5t-49.5 13
t-49.5 -13.5t-19.5 -34.5t-4 -45t4 -45.5t19.5 -35t49.5 -13.5zM396 -199q-24 0 -50 9t-44 29.5t-18 56.5q0 31 17 55.5t41.5 41.5t49 28.5t41.5 16.5l17 5v-62l-10 -4t-23 -11.5t-23 -18.5t-10 -26q0 -10 7 -16t18 -6q12 0 21 6.5t14 13l5 6.5l71 -64l-13.5 -15t-40.5 -30
t-70 -15z" />
    <glyph glyph-name="Cacute" unicode="&#x106;" horiz-adv-x="608" 
d="M303 -10q-80 0 -146 32t-105 96t-38 159q1 93 39.5 159.5t104.5 101.5t148 35q85 0 143 -30.5t90.5 -80t41.5 -106.5h-144q-5 38 -28.5 56t-52 23.5t-50.5 5.5q-78 0 -116 -40.5t-38 -112.5q0 -79 37 -123t116 -44q23 0 52 6.5t52.5 26.5t28.5 60h145q-10 -59 -43 -110.5
t-91.5 -82.5t-145.5 -31zM336 610h-62v17l39 97h115v-22z" />
    <glyph glyph-name="cacute" unicode="&#x107;" horiz-adv-x="486" 
d="M245 -10q-58 0 -107.5 23t-79.5 70t-30 117q2 69 31 117t78 73.5t109 25.5q70 0 116.5 -27t70 -67.5t23.5 -81.5h-127q-5 29 -24 43.5t-54 14.5q-30 0 -49 -11t-28.5 -30t-9.5 -45q0 -47 21 -75t68 -28q27 0 49 15t27 49h127q0 -44 -23.5 -86t-70.5 -69.5t-117 -27.5z
M275 461h-62v17l39 97h115v-22z" />
    <glyph glyph-name="Cdotaccent" unicode="&#x10a;" horiz-adv-x="608" 
d="M303 -10q-80 0 -146 32t-105 96t-38 159q1 93 39.5 159.5t104.5 101.5t148 35q85 0 143 -30.5t90.5 -80t41.5 -106.5h-144q-5 38 -28.5 56t-52 23.5t-50.5 5.5q-78 0 -116 -40.5t-38 -112.5q0 -79 37 -123t116 -44q23 0 52 6.5t52.5 26.5t28.5 60h145q-10 -59 -43 -110.5
t-91.5 -82.5t-145.5 -31zM305 608q-42 0 -56.5 21.5t-14.5 49.5q0 27 14.5 48t56.5 21t55.5 -21t13.5 -48q0 -28 -13.5 -49.5t-55.5 -21.5z" />
    <glyph glyph-name="cdotaccent" unicode="&#x10b;" horiz-adv-x="486" 
d="M245 -10q-58 0 -107.5 23t-79.5 70t-30 117q2 69 31 117t78 73.5t109 25.5q70 0 116.5 -27t70 -67.5t23.5 -81.5h-127q-5 29 -24 43.5t-54 14.5q-30 0 -49 -11t-28.5 -30t-9.5 -45q0 -47 21 -75t68 -28q27 0 49 15t27 49h127q0 -44 -23.5 -86t-70.5 -69.5t-117 -27.5z
M244 459q-42 0 -56.5 21.5t-14.5 49.5q0 27 14.5 48t56.5 21t55.5 -21t13.5 -48q0 -28 -13.5 -49.5t-55.5 -21.5z" />
    <glyph glyph-name="Ccaron" unicode="&#x10c;" horiz-adv-x="608" 
d="M303 -10q-80 0 -146 32t-105 96t-38 159q1 93 39.5 159.5t104.5 101.5t148 35q85 0 143 -30.5t90.5 -80t41.5 -106.5h-144q-5 38 -28.5 56t-52 23.5t-50.5 5.5q-78 0 -116 -40.5t-38 -112.5q0 -79 37 -123t116 -44q23 0 52 6.5t52.5 26.5t28.5 60h145q-10 -59 -43 -110.5
t-91.5 -82.5t-145.5 -31zM275 610l-127 114v10h124l29 -36h6l32 36h120v-10l-126 -114h-58z" />
    <glyph glyph-name="ccaron" unicode="&#x10d;" horiz-adv-x="486" 
d="M245 -10q-58 0 -107.5 23t-79.5 70t-30 117q2 69 31 117t78 73.5t109 25.5q70 0 116.5 -27t70 -67.5t23.5 -81.5h-127q-5 29 -24 43.5t-54 14.5q-30 0 -49 -11t-28.5 -30t-9.5 -45q0 -47 21 -75t68 -28q27 0 49 15t27 49h127q0 -44 -23.5 -86t-70.5 -69.5t-117 -27.5z
M214 461l-127 114v10h124l29 -36h6l32 36h120v-10l-126 -114h-58z" />
    <glyph glyph-name="Dcaron" unicode="&#x10e;" horiz-adv-x="625" 
d="M198 114v329h66q54 0 92.5 -18t59 -53.5t20.5 -88.5q0 -52 -11.5 -85t-34 -51.5t-54 -25.5t-72.5 -7h-21.5h-44.5zM585 282q0 94 -44.5 156t-126.5 93.5t-193 31.5h-51.5h-109.5v-563h106.5h54.5q111 0 193 24t126.5 85.5t44.5 172.5zM239 610l-127 114v10h124l29 -36h6
l32 36h120v-10l-126 -114h-58z" />
    <glyph glyph-name="dcaron" unicode="&#x10f;" horiz-adv-x="669" 
d="M200 -10q-62 0 -97.5 25t-50 72t-14.5 111q0 69 15 117t50.5 73.5t96.5 25.5q38 0 63 -11.5t39 -26.5t20 -26.5l6 -11.5h2v225h144v-563h-122l-22 56h-2l-6.5 -10t-21.5 -23t-39.5 -23t-60.5 -10zM252 105q36 0 52.5 13.5t21 35t4.5 45.5t-4.5 45.5t-21 34.5t-52.5 13
q-35 0 -52 -13t-21.5 -34.5t-4.5 -45.5t4.5 -45.5t21.5 -35t52 -13.5zM512 389l27 174h130l-76 -174h-81z" />
    <glyph glyph-name="Dcroat" unicode="&#x110;" horiz-adv-x="600" 
d="M60 0v563h109.5h51.5q111 0 193 -31.5t126.5 -93.5t44.5 -156q0 -111 -44.5 -172.5t-126.5 -85.5t-193 -24h-54.5h-106.5zM0 241v90h315v-90h-315zM198 114h44.5h21.5q41 0 72.5 7t54 25.5t34 51.5t11.5 85q0 53 -20.5 88.5t-59 53.5t-92.5 18h-66v-329z" />
    <glyph glyph-name="dcroat" unicode="&#x111;" horiz-adv-x="521" 
d="M195 -10q-62 0 -97.5 25t-50 72t-14.5 111q0 69 15 117t50.5 73.5t96.5 25.5q38 0 63 -11.5t39 -26.5t20 -26.5l6 -11.5h2v225h144v-563h-122l-22 56h-2l-6.5 -10t-21.5 -23t-39.5 -23t-60.5 -10zM247 105q36 0 52.5 13.5t21 35t4.5 45.5t-4.5 45.5t-21 34.5t-52.5 13
q-35 0 -52 -13t-21.5 -34.5t-4.5 -45.5t4.5 -45.5t21.5 -35t52 -13.5zM191 446v80h315v-80h-315z" />
    <glyph glyph-name="Emacron" unicode="&#x112;" horiz-adv-x="523" 
d="M50 0v563h426v-119h-289v-103h215v-112h-215v-118h300v-111h-437zM111 630v94h302v-94h-302z" />
    <glyph glyph-name="emacron" unicode="&#x113;" 
d="M235 -10q-75 0 -121 30t-67.5 77.5t-23.5 99.5q-2 68 24 117.5t73.5 76t109.5 26.5q59 0 105.5 -24.5t73 -69.5t26.5 -108v-10.5v-15.5h-280q0 -44 21.5 -64t55.5 -20q29 0 46.5 13.5t20.5 34.5h135q-3 -44 -26 -81.5t-66 -59.5t-107 -22zM157 245h138l-0.5 9t-6.5 21
t-20 21t-41 9t-42 -9t-20.5 -21t-6.5 -21zM86 481v94h302v-94h-302z" />
    <glyph glyph-name="Edotaccent" unicode="&#x116;" horiz-adv-x="523" 
d="M50 0v563h426v-119h-289v-103h215v-112h-215v-118h300v-111h-437zM263 608q-42 0 -56.5 21.5t-14.5 49.5q0 27 14.5 48t56.5 21t55.5 -21t13.5 -48q0 -28 -13.5 -49.5t-55.5 -21.5z" />
    <glyph glyph-name="edotaccent" unicode="&#x117;" 
d="M235 -10q-75 0 -121 30t-67.5 77.5t-23.5 99.5q-2 68 24 117.5t73.5 76t109.5 26.5q59 0 105.5 -24.5t73 -69.5t26.5 -108v-10.5v-15.5h-280q0 -44 21.5 -64t55.5 -20q29 0 46.5 13.5t20.5 34.5h135q-3 -44 -26 -81.5t-66 -59.5t-107 -22zM157 245h138l-0.5 9t-6.5 21
t-20 21t-41 9t-42 -9t-20.5 -21t-6.5 -21zM238 459q-42 0 -56.5 21.5t-14.5 49.5q0 27 14.5 48t56.5 21t55.5 -21t13.5 -48q0 -28 -13.5 -49.5t-55.5 -21.5z" />
    <glyph glyph-name="Eogonek" unicode="&#x118;" horiz-adv-x="523" 
d="M50 0v563h426v-119h-289v-103h215v-112h-215v-118h300v-111h-437zM429 -180q-24 0 -50 9t-44 29.5t-18 56.5q0 31 17 55.5t41.5 41.5t49 28.5t41.5 16.5l17 5v-62l-10 -4t-23 -11.5t-23 -18.5t-10 -26q0 -10 7 -16t18 -6q12 0 21 6.5t14 13l5 6.5l71 -64l-13.5 -15
t-40.5 -30t-70 -15z" />
    <glyph glyph-name="eogonek" unicode="&#x119;" 
d="M254 -181q-24 0 -50 9t-44 29.5t-18 56.5q0 31 17 55.5t41.5 41.5t49 28.5t41.5 16.5l17 5v-62l-10 -4t-23 -11.5t-23 -18.5t-10 -26q0 -10 7 -16t18 -6q12 0 21 6.5t14 13l5 6.5l71 -64l-13.5 -15t-40.5 -30t-70 -15zM235 -10q-75 0 -121 30t-67.5 77.5t-23.5 99.5
q-2 68 24 117.5t73.5 76t109.5 26.5q59 0 105.5 -24.5t73 -69.5t26.5 -108v-10.5v-15.5h-280q0 -44 21.5 -64t55.5 -20q29 0 46.5 13.5t20.5 34.5h135q-3 -44 -26 -81.5t-66 -59.5t-107 -22zM157 245h138l-0.5 9t-6.5 21t-20 21t-41 9t-42 -9t-20.5 -21t-6.5 -21z" />
    <glyph glyph-name="Ecaron" unicode="&#x11a;" horiz-adv-x="523" 
d="M50 0v563h426v-119h-289v-103h215v-112h-215v-118h300v-111h-437zM233 610l-127 114v10h124l29 -36h6l32 36h120v-10l-126 -114h-58z" />
    <glyph glyph-name="ecaron" unicode="&#x11b;" 
d="M235 -10q-75 0 -121 30t-67.5 77.5t-23.5 99.5q-2 68 24 117.5t73.5 76t109.5 26.5q59 0 105.5 -24.5t73 -69.5t26.5 -108v-10.5v-15.5h-280q0 -44 21.5 -64t55.5 -20q29 0 46.5 13.5t20.5 34.5h135q-3 -44 -26 -81.5t-66 -59.5t-107 -22zM157 245h138l-0.5 9t-6.5 21
t-20 21t-41 9t-42 -9t-20.5 -21t-6.5 -21zM208 461l-127 114v10h124l29 -36h6l32 36h120v-10l-126 -114h-58z" />
    <glyph glyph-name="Gbreve" unicode="&#x11e;" horiz-adv-x="636" 
d="M290 -10q-83 0 -146 32.5t-96.5 96.5t-31.5 159q3 96 41.5 162t104.5 99.5t149 33.5q124 0 186.5 -50t84.5 -146l-135 -21q-8 35 -30.5 53.5t-51 25.5t-54.5 7q-84 0 -121 -43.5t-36 -109.5q0 -81 45.5 -122t130.5 -41q25 0 52 5.5t50 19.5t35 41h-91v100h217v-292h-93
l-30 72h-2q-9 -17 -25.5 -32t-39 -26t-51 -17.5t-62.5 -6.5zM318 613q-70 0 -108.5 32t-38.5 87h97q0 -25 14 -35.5t36 -10.5q23 0 36 10t13 36h97q0 -55 -37.5 -87t-108.5 -32z" />
    <glyph glyph-name="gbreve" unicode="&#x11f;" horiz-adv-x="496" 
d="M165 -199v132h157v123h-2l-6.5 -10t-20.5 -23t-38 -23t-60 -10q-62 0 -98 25.5t-51 72.5t-15 111q0 69 15.5 117t51.5 73t97 25q38 0 62.5 -11.5t38 -26.5t19 -26.5l5.5 -11.5h2v76h144v-414q0 -77 -20.5 -120.5t-61 -61t-100.5 -17.5h-119zM244 105q36 0 52.5 13.5
t21 35t4.5 45.5t-4.5 45.5t-21 34.5t-52.5 13q-35 0 -52 -13t-21.5 -34.5t-4.5 -45.5t4.5 -45.5t21.5 -35t52 -13.5zM248 464q-70 0 -108.5 32t-38.5 87h97q0 -25 14 -35.5t36 -10.5q23 0 36 10t13 36h97q0 -55 -37.5 -87t-108.5 -32z" />
    <glyph glyph-name="Gdotaccent" unicode="&#x120;" horiz-adv-x="636" 
d="M290 -10q-83 0 -146 32.5t-96.5 96.5t-31.5 159q3 96 41.5 162t104.5 99.5t149 33.5q124 0 186.5 -50t84.5 -146l-135 -21q-8 35 -30.5 53.5t-51 25.5t-54.5 7q-84 0 -121 -43.5t-36 -109.5q0 -81 45.5 -122t130.5 -41q25 0 52 5.5t50 19.5t35 41h-91v100h217v-292h-93
l-30 72h-2q-9 -17 -25.5 -32t-39 -26t-51 -17.5t-62.5 -6.5zM319 608q-42 0 -56.5 21.5t-14.5 49.5q0 27 14.5 48t56.5 21t55.5 -21t13.5 -48q0 -28 -13.5 -49.5t-55.5 -21.5z" />
    <glyph glyph-name="gdotaccent" unicode="&#x121;" horiz-adv-x="496" 
d="M165 -199v132h157v123h-2l-6.5 -10t-20.5 -23t-38 -23t-60 -10q-62 0 -98 25.5t-51 72.5t-15 111q0 69 15.5 117t51.5 73t97 25q38 0 62.5 -11.5t38 -26.5t19 -26.5l5.5 -11.5h2v76h144v-414q0 -77 -20.5 -120.5t-61 -61t-100.5 -17.5h-119zM244 105q36 0 52.5 13.5
t21 35t4.5 45.5t-4.5 45.5t-21 34.5t-52.5 13q-35 0 -52 -13t-21.5 -34.5t-4.5 -45.5t4.5 -45.5t21.5 -35t52 -13.5zM249 459q-42 0 -56.5 21.5t-14.5 49.5q0 27 14.5 48t56.5 21t55.5 -21t13.5 -48q0 -28 -13.5 -49.5t-55.5 -21.5z" />
    <glyph glyph-name="uni0122" unicode="&#x122;" horiz-adv-x="636" 
d="M290 -10q-83 0 -146 32.5t-96.5 96.5t-31.5 159q3 96 41.5 162t104.5 99.5t149 33.5q124 0 186.5 -50t84.5 -146l-135 -21q-8 35 -30.5 53.5t-51 25.5t-54.5 7q-84 0 -121 -43.5t-36 -109.5q0 -81 45.5 -122t130.5 -41q25 0 52 5.5t50 19.5t35 41h-91v100h217v-292h-93
l-30 72h-2q-9 -17 -25.5 -32t-39 -26t-51 -17.5t-62.5 -6.5zM246 -293v85h31q27 0 40 5t13 26q-48 0 -66 21t-18 50q0 30 17 50.5t57 20.5q30 0 50 -18.5t20 -78.5q0 -41 -11.5 -78t-36 -60t-65.5 -23h-31z" />
    <glyph glyph-name="uni0123" unicode="&#x123;" horiz-adv-x="496" 
d="M165 -199v132h157v123h-2l-6.5 -10t-20.5 -23t-38 -23t-60 -10q-62 0 -98 25.5t-51 72.5t-15 111q0 69 15.5 117t51.5 73t97 25q38 0 62.5 -11.5t38 -26.5t19 -26.5l5.5 -11.5h2v76h144v-414q0 -77 -20.5 -120.5t-61 -61t-100.5 -17.5h-119zM244 105q36 0 52.5 13.5
t21 35t4.5 45.5t-4.5 45.5t-21 34.5t-52.5 13q-35 0 -52 -13t-21.5 -34.5t-4.5 -45.5t4.5 -45.5t21.5 -35t52 -13.5zM272 462h-62v17l39 97h115v-22z" />
    <glyph glyph-name="Hbar" unicode="&#x126;" horiz-adv-x="600" 
d="M4 404v96h587v-96h-587zM190 0h-140v563h140v-563zM405 563h140v-563h-140v563zM494 230h-384v106h384v-106z" />
    <glyph glyph-name="hbar" unicode="&#x127;" horiz-adv-x="491" 
d="M305 0v131v81.5t-13 60t-52 22.5q-21 0 -33 -15.5t-17 -48t-5 -82.5v146q-1 -7 1 3.5t9.5 29.5t21 39.5t35.5 35t53 14.5q49 0 78 -20t42.5 -52t17.5 -68.5t3 -71t-1 -59.5v-146h-140zM45 0v563h140v-563h-140zM310 446h-315v80h315v-80z" />
    <glyph glyph-name="Itilde" unicode="&#x128;" horiz-adv-x="415" 
d="M136 18v527h139v-527h-139zM63 0v119h284v-119h-284zM63 444v119h284v-119h-284zM57 625q0 12 0.5 33.5t7.5 44t26 38.5t56 16q28 0 44.5 -9t26.5 -20t19 -20t21 -9q15 0 17.5 14.5t2.5 39.5h78q0 -19 -1.5 -41.5t-9.5 -43.5t-26.5 -34.5t-52.5 -13.5q-28 0 -44 9t-26 20
t-18 20t-22 9q-16 0 -18.5 -13.5t-2.5 -39.5h-78z" />
    <glyph glyph-name="itilde" unicode="&#x129;" horiz-adv-x="230" 
d="M45 0v414h140v-414h-140zM-34 476q0 12 0.5 33.5t7.5 44t26 38.5t56 16q28 0 44.5 -9t26.5 -20t19 -20t21 -9q15 0 17.5 14.5t2.5 39.5h78q0 -19 -1.5 -41.5t-9.5 -43.5t-26.5 -34.5t-52.5 -13.5q-28 0 -44 9t-26 20t-18 20t-22 9q-16 0 -18.5 -13.5t-2.5 -39.5h-78z" />
    <glyph glyph-name="Imacron" unicode="&#x12a;" horiz-adv-x="415" 
d="M136 18v527h139v-527h-139zM63 0v119h284v-119h-284zM63 444v119h284v-119h-284zM55 630v94h302v-94h-302z" />
    <glyph glyph-name="imacron" unicode="&#x12b;" horiz-adv-x="230" 
d="M45 0v414h140v-414h-140zM24 481v94h182v-94h-182z" />
    <glyph glyph-name="Iogonek" unicode="&#x12e;" horiz-adv-x="415" 
d="M136 18v527h139v-527h-139zM63 0v119h284v-119h-284zM63 444v119h284v-119h-284zM210 -180q-24 0 -50 9t-44 29.5t-18 56.5q0 31 17 55.5t41.5 41.5t49 28.5t41.5 16.5l17 5v-62l-10 -4t-23 -11.5t-23 -18.5t-10 -26q0 -10 7 -16t18 -6q12 0 21 6.5t14 13l5 6.5l71 -64
l-13.5 -15t-40.5 -30t-70 -15z" />
    <glyph glyph-name="iogonek" unicode="&#x12f;" horiz-adv-x="230" 
d="M45 0v414h140v-414h-140zM116 459q-42 0 -56.5 21.5t-14.5 49.5q0 27 14.5 48t56.5 21t55.5 -21t13.5 -48q0 -28 -13.5 -49.5t-55.5 -21.5zM131 -180q-24 0 -50 9t-44 29.5t-18 56.5q0 31 17 55.5t41.5 41.5t49 28.5t41.5 16.5l17 5v-62l-10 -4t-23 -11.5t-23 -18.5
t-10 -26q0 -10 7 -16t18 -6q12 0 21 6.5t14 13l5 6.5l71 -64l-13.5 -15t-40.5 -30t-70 -15z" />
    <glyph glyph-name="Idotaccent" unicode="&#x130;" horiz-adv-x="415" 
d="M136 18v527h139v-527h-139zM63 0v119h284v-119h-284zM63 444v119h284v-119h-284zM207 608q-42 0 -56.5 21.5t-14.5 49.5q0 27 14.5 48t56.5 21t55.5 -21t13.5 -48q0 -28 -13.5 -49.5t-55.5 -21.5z" />
    <glyph glyph-name="dotlessi" unicode="&#x131;" horiz-adv-x="230" 
d="M45 0v414h140v-414h-140z" />
    <glyph glyph-name="IJ" unicode="&#x132;" horiz-adv-x="923" 
d="M136 18v527h139v-527h-139zM63 0v119h284v-119h-284zM63 444v119h284v-119h-284zM658 -10q-57 0 -96.5 15t-64 42.5t-36 65t-11.5 82.5h132q0 -23 6 -42.5t21.5 -31t43.5 -11.5q36 0 53 22.5t17 89.5v323h140v-299q0 -58 -7.5 -105.5t-28.5 -81t-61.5 -51.5t-107.5 -18z
M605 457v106h258v-106h-258z" />
    <glyph glyph-name="ij" unicode="&#x133;" horiz-adv-x="507" 
d="M46 0v414h140v-414h-140zM116 459q-42 0 -56.5 21.5t-14.5 49.5q0 27 14.5 48t56.5 21t55.5 -21t13.5 -48q0 -28 -13.5 -49.5t-55.5 -21.5zM357 459q-42 0 -56.5 21.5t-14.5 49.5q0 27 14.5 48t56.5 21t55.5 -21t13.5 -48q0 -28 -13.5 -49.5t-55.5 -21.5zM287 414h140
v-483q0 -74 -35 -102t-95 -28h-77v107h67v506z" />
    <glyph glyph-name="uni0136" unicode="&#x136;" horiz-adv-x="604" 
d="M197 169v153l204 241h182v-13zM60 0v563h139v-563h-139zM436 0l-187 286l101 99l245 -372v-13h-159zM230 -293v85h31q27 0 40 5t13 26q-48 0 -66 21t-18 50q0 30 17 50.5t57 20.5q30 0 50 -18.5t20 -78.5q0 -41 -11.5 -78t-36 -60t-65.5 -23h-31z" />
    <glyph glyph-name="uni0137" unicode="&#x137;" horiz-adv-x="468" 
d="M175 0h-140v563h140v-563zM266 312l208 -311h-165l-145 213zM173 96v153l130 168h168zM162 -293v85h31q27 0 40 5t13 26q-48 0 -66 21t-18 50q0 30 17 50.5t57 20.5q30 0 50 -18.5t20 -78.5q0 -41 -11.5 -78t-36 -60t-65.5 -23h-31z" />
    <glyph glyph-name="Lacute" unicode="&#x139;" horiz-adv-x="473" 
d="M60 0v563h140v-563h-140zM60 0v119h383v-119h-383zM148 610h-62v17l39 97h115v-22z" />
    <glyph glyph-name="lacute" unicode="&#x13a;" horiz-adv-x="226" 
d="M45 0v563h136v-563h-136zM145 610h-62v17l39 97h115v-22z" />
    <glyph glyph-name="uni013B" unicode="&#x13b;" horiz-adv-x="473" 
d="M60 0v563h140v-563h-140zM60 0v119h383v-119h-383zM165 -293v85h31q27 0 40 5t13 26q-48 0 -66 21t-18 50q0 30 17 50.5t57 20.5q30 0 50 -18.5t20 -78.5q0 -41 -11.5 -78t-36 -60t-65.5 -23h-31z" />
    <glyph glyph-name="uni013C" unicode="&#x13c;" horiz-adv-x="226" 
d="M45 0v563h136v-563h-136zM41 -293v85h31q27 0 40 5t13 26q-48 0 -66 21t-18 50q0 30 17 50.5t57 20.5q30 0 50 -18.5t20 -78.5q0 -41 -11.5 -78t-36 -60t-65.5 -23h-31z" />
    <glyph glyph-name="Lcaron" unicode="&#x13d;" horiz-adv-x="473" 
d="M60 0v563h140v-563h-140zM60 0v119h383v-119h-383zM286 389l27 174h130l-76 -174h-81z" />
    <glyph glyph-name="lcaron" unicode="&#x13e;" horiz-adv-x="390" 
d="M45 0v563h136v-563h-136zM233 389l27 174h130l-76 -174h-81z" />
    <glyph glyph-name="Lslash" unicode="&#x141;" horiz-adv-x="473" 
d="M1 160v120l302 134v-120zM60 0v563h140v-563h-140zM60 0v119h383v-119h-383z" />
    <glyph glyph-name="lslash" unicode="&#x142;" horiz-adv-x="285" 
d="M-9 160v120l262 134v-120zM45 0v563h136v-563h-136z" />
    <glyph glyph-name="Nacute" unicode="&#x143;" horiz-adv-x="630" 
d="M429 563h146v-563h-268l-105 502h-2v-502h-145v563h248l124 -502h2v502zM347 610h-62v17l39 97h115v-22z" />
    <glyph glyph-name="nacute" unicode="&#x144;" horiz-adv-x="486" 
d="M35 0v414h121l23 -76h2l5.5 11.5t19.5 26.5t39.5 26.5t65.5 11.5q45 0 72.5 -16t42 -41.5t19.5 -55t5.5 -57t0.5 -46.5v-198h-136v199q0 22 -3.5 43t-17.5 35.5t-48 14.5q-33 0 -47 -14.5t-17 -35.5t-3 -43v-199h-144zM275 461h-62v17l39 97h115v-22z" />
    <glyph glyph-name="uni0145" unicode="&#x145;" horiz-adv-x="630" 
d="M429 563h146v-563h-268l-105 502h-2v-502h-145v563h248l124 -502h2v502zM243 -293v85h31q27 0 40 5t13 26q-48 0 -66 21t-18 50q0 30 17 50.5t57 20.5q30 0 50 -18.5t20 -78.5q0 -41 -11.5 -78t-36 -60t-65.5 -23h-31z" />
    <glyph glyph-name="uni0146" unicode="&#x146;" horiz-adv-x="486" 
d="M35 0v414h121l23 -76h2l5.5 11.5t19.5 26.5t39.5 26.5t65.5 11.5q45 0 72.5 -16t42 -41.5t19.5 -55t5.5 -57t0.5 -46.5v-198h-136v199q0 22 -3.5 43t-17.5 35.5t-48 14.5q-33 0 -47 -14.5t-17 -35.5t-3 -43v-199h-144zM171 -293v85h31q27 0 40 5t13 26q-48 0 -66 21
t-18 50q0 30 17 50.5t57 20.5q30 0 50 -18.5t20 -78.5q0 -41 -11.5 -78t-36 -60t-65.5 -23h-31z" />
    <glyph glyph-name="Ncaron" unicode="&#x147;" horiz-adv-x="630" 
d="M429 563h146v-563h-268l-105 502h-2v-502h-145v563h248l124 -502h2v502zM286 610l-127 114v10h124l29 -36h6l32 36h120v-10l-126 -114h-58z" />
    <glyph glyph-name="ncaron" unicode="&#x148;" horiz-adv-x="486" 
d="M35 0v414h121l23 -76h2l5.5 11.5t19.5 26.5t39.5 26.5t65.5 11.5q45 0 72.5 -16t42 -41.5t19.5 -55t5.5 -57t0.5 -46.5v-198h-136v199q0 22 -3.5 43t-17.5 35.5t-48 14.5q-33 0 -47 -14.5t-17 -35.5t-3 -43v-199h-144zM214 461l-127 114v10h124l29 -36h6l32 36h120v-10
l-126 -114h-58z" />
    <glyph glyph-name="Eng" unicode="&#x14a;" horiz-adv-x="600" 
d="M418 -207q-40 0 -67.5 13t-41.5 25.5l-14 12.5l75 93l9.5 -8t25.5 -8q10 0 20 7.5t10 28.5v43h140v-65q0 -36 -16 -68.5t-50.5 -53t-90.5 -20.5zM429 563h146v-563h-268l-105 502h-2v-502h-145v563h248l124 -502h2v502z" />
    <glyph glyph-name="eng" unicode="&#x14b;" horiz-adv-x="531" 
d="M298 -198q-40 0 -67.5 13t-41.5 25.5l-14 12.5l75 93l9.5 -8t25.5 -8q10 0 20 7.5t10 28.5v43h136v-65q0 -36 -15 -68.5t-48.5 -53t-89.5 -20.5zM35 0v414h121l23 -76h2l5.5 11.5t19.5 26.5t39.5 26.5t65.5 11.5q45 0 72.5 -16t42 -41.5t19.5 -55t5.5 -57t0.5 -46.5v-198
h-136v199q0 22 -3.5 43t-17.5 35.5t-48 14.5q-33 0 -47 -14.5t-17 -35.5t-3 -43v-199h-144z" />
    <glyph glyph-name="Omacron" unicode="&#x14c;" horiz-adv-x="619" 
d="M302 -14q-140 0 -214 79.5t-74 214.5q0 89 32 154.5t96 102t160 36.5q140 0 213 -79.5t73 -213.5q0 -87 -32.5 -153.5t-96 -103.5t-157.5 -37zM300 121q51 0 84.5 21.5t50 58t16.5 79.5q0 44 -16.5 81t-50 59t-84.5 22q-73 0 -111.5 -46t-38.5 -116q0 -42 16.5 -78.5
t49.5 -58.5t84 -22zM159 630v94h302v-94h-302z" />
    <glyph glyph-name="omacron" unicode="&#x14d;" horiz-adv-x="487" 
d="M239 -10q-73 0 -122 27.5t-73 75.5t-24 109q0 62 24 110t73 75.5t122 27.5q107 0 162.5 -58.5t55.5 -154.5q0 -60 -23.5 -108t-71.5 -76t-123 -28zM239 106q37 0 55 15t23.5 38.5t5.5 47.5q0 25 -5.5 48t-23.5 38.5t-55 15.5t-55.5 -15.5t-24 -38.5t-5.5 -48
q0 -24 5.5 -47.5t24 -38.5t55.5 -15zM93 481v94h302v-94h-302z" />
    <glyph glyph-name="Ohungarumlaut" unicode="&#x150;" horiz-adv-x="619" 
d="M302 -14q-140 0 -214 79.5t-74 214.5q0 89 32 154.5t96 102t160 36.5q140 0 213 -79.5t73 -213.5q0 -87 -32.5 -153.5t-96 -103.5t-157.5 -37zM300 121q51 0 84.5 21.5t50 58t16.5 79.5q0 44 -16.5 81t-50 59t-84.5 22q-73 0 -111.5 -46t-38.5 -116q0 -42 16.5 -78.5
t49.5 -58.5t84 -22zM154 641l67 158l107 -53l-112 -135zM355 641l67 158l107 -53l-112 -135z" />
    <glyph glyph-name="ohungarumlaut" unicode="&#x151;" horiz-adv-x="487" 
d="M239 -10q-73 0 -122 27.5t-73 75.5t-24 109q0 62 24 110t73 75.5t122 27.5q107 0 162.5 -58.5t55.5 -154.5q0 -60 -23.5 -108t-71.5 -76t-123 -28zM239 106q37 0 55 15t23.5 38.5t5.5 47.5q0 25 -5.5 48t-23.5 38.5t-55 15.5t-55.5 -15.5t-24 -38.5t-5.5 -48
q0 -24 5.5 -47.5t24 -38.5t55.5 -15zM88 492l67 158l107 -53l-112 -135zM289 492l67 158l107 -53l-112 -135z" />
    <glyph glyph-name="OE" unicode="&#x152;" horiz-adv-x="858" 
d="M395 0q-111 0 -190.5 24t-122 85.5t-42.5 172.5q0 94 42.5 156t122 93.5t190.5 31.5h21.5h34h72.5v-563h-69.5h-35h-23.5zM361 114q4 0 1.5 0t0.5 0h22v329h-24q-54 0 -92.5 -18t-59 -53.5t-20.5 -88.5q0 -52 11.5 -85t34 -51.5t54.5 -25.5t72 -7zM385 0v563h426v-119
h-289v-103h215v-112h-215v-118h300v-111h-437z" />
    <glyph glyph-name="oe" unicode="&#x153;" horiz-adv-x="754" 
d="M231 -10q-73 0 -122 27.5t-73 75.5t-24 109q0 62 24 110t73 75.5t122 27.5q107 0 162.5 -58.5t55.5 -154.5q0 -60 -23.5 -108t-71.5 -76t-123 -28zM231 106q37 0 55 15t23.5 38.5t5.5 47.5q0 25 -5.5 48t-23.5 38.5t-55 15.5t-55.5 -15.5t-24 -38.5t-5.5 -48
q0 -24 5.5 -47.5t24 -38.5t55.5 -15zM533 -10q-78 0 -126 30t-69.5 77.5t-21.5 99.5q0 41 10.5 80t35.5 70.5t67 50.5t105 19q54 0 98.5 -26.5t71 -72t24.5 -103.5v-10.5v-15.5h-278q0 -40 22.5 -59.5t59.5 -19.5q32 0 46.5 14t20.5 37l133 -27q-12 -38 -36 -71t-64 -53
t-99 -20zM450 257h138l0.5 9.5t-3.5 22.5t-17 22.5t-40 9.5q-30 0 -46 -9.5t-22.5 -22.5t-8 -22.5z" />
    <glyph glyph-name="Racute" unicode="&#x154;" horiz-adv-x="578" 
d="M50 0v563h229q74 0 127 -17t82 -54t29 -99q0 -51 -15 -86.5t-43 -54.5t-66 -19q24 0 37.5 -9.5t21 -25t11.5 -32.5t8 -33t11.5 -27t22.5 -13t40 8v-76q-28 -24 -62 -31.5t-64.5 4t-50.5 44t-20 88.5q0 19 -2 35.5t-10 29t-25 20.5t-46 10t-75 -2v-223h-140zM190 321h70
q46 0 75 1t43.5 13.5t14.5 45.5q0 37 -17.5 51.5t-51 16.5t-82.5 2h-52v-130zM290 610h-62v17l39 97h115v-22z" />
    <glyph glyph-name="racute" unicode="&#x155;" horiz-adv-x="374" 
d="M35 0v414h132l9 -121l-1 -90v-203h-140zM175 165l-3 93q-1 18 5.5 44.5t24 52t49.5 42.5t81 17h9v-155h-10q-37 0 -66.5 -3t-49 -12t-30 -28t-10.5 -51zM219 461h-62v17l39 97h115v-22z" />
    <glyph glyph-name="uni0156" unicode="&#x156;" horiz-adv-x="578" 
d="M50 0v563h229q74 0 127 -17t82 -54t29 -99q0 -51 -15 -86.5t-43 -54.5t-66 -19q24 0 37.5 -9.5t21 -25t11.5 -32.5t8 -33t11.5 -27t22.5 -13t40 8v-76q-28 -24 -62 -31.5t-64.5 4t-50.5 44t-20 88.5q0 19 -2 35.5t-10 29t-25 20.5t-46 10t-75 -2v-223h-140zM190 321h70
q46 0 75 1t43.5 13.5t14.5 45.5q0 37 -17.5 51.5t-51 16.5t-82.5 2h-52v-130zM217 -293v85h31q27 0 40 5t13 26q-48 0 -66 21t-18 50q0 30 17 50.5t57 20.5q30 0 50 -18.5t20 -78.5q0 -41 -11.5 -78t-36 -60t-65.5 -23h-31z" />
    <glyph glyph-name="uni0157" unicode="&#x157;" horiz-adv-x="374" 
d="M35 0v414h132l9 -121l-1 -90v-203h-140zM175 165l-3 93q-1 18 5.5 44.5t24 52t49.5 42.5t81 17h9v-155h-10q-37 0 -66.5 -3t-49 -12t-30 -28t-10.5 -51zM33 -293v85h31q27 0 40 5t13 26q-48 0 -66 21t-18 50q0 30 17 50.5t57 20.5q30 0 50 -18.5t20 -78.5
q0 -41 -11.5 -78t-36 -60t-65.5 -23h-31z" />
    <glyph glyph-name="Rcaron" unicode="&#x158;" horiz-adv-x="578" 
d="M50 0v563h229q74 0 127 -17t82 -54t29 -99q0 -51 -15 -86.5t-43 -54.5t-66 -19q24 0 37.5 -9.5t21 -25t11.5 -32.5t8 -33t11.5 -27t22.5 -13t40 8v-76q-28 -24 -62 -31.5t-64.5 4t-50.5 44t-20 88.5q0 19 -2 35.5t-10 29t-25 20.5t-46 10t-75 -2v-223h-140zM190 321h70
q46 0 75 1t43.5 13.5t14.5 45.5q0 37 -17.5 51.5t-51 16.5t-82.5 2h-52v-130zM229 610l-127 114v10h124l29 -36h6l32 36h120v-10l-126 -114h-58z" />
    <glyph glyph-name="rcaron" unicode="&#x159;" horiz-adv-x="374" 
d="M35 0v414h132l9 -121l-1 -90v-203h-140zM175 165l-3 93q-1 18 5.5 44.5t24 52t49.5 42.5t81 17h9v-155h-10q-37 0 -66.5 -3t-49 -12t-30 -28t-10.5 -51zM158 461l-127 114v10h124l29 -36h6l32 36h120v-10l-126 -114h-58z" />
    <glyph glyph-name="Sacute" unicode="&#x15a;" horiz-adv-x="584" 
d="M282 -10q-48 0 -94 11t-83 35.5t-59.5 63.5t-22.5 94h140q0 -5 2.5 -14t10.5 -20t22 -21t37.5 -16.5t57.5 -6.5q14 0 29.5 1.5t28.5 6t21 13.5t8 24q0 21 -19.5 33t-51 19.5t-69 15.5t-74.5 20t-67.5 32.5t-47 53t-13.5 81.5q4 49 34 84t85 54t132 19q62 0 116.5 -22
t89 -67t34.5 -114h-135q0 23 -12 37.5t-31 22t-40 10t-38 2.5q-37 0 -61.5 -9t-24.5 -35q0 -23 20 -35.5t52 -20t70.5 -15t76.5 -18.5t68.5 -30.5t48 -51.5t13.5 -82q-3 -49 -35.5 -83.5t-88 -53t-130.5 -18.5zM324 610h-62v17l39 97h115v-22z" />
    <glyph glyph-name="sacute" unicode="&#x15b;" horiz-adv-x="427" 
d="M221 -10q-7 0 -29.5 1.5t-51 9t-55.5 24.5t-44.5 46.5t-17.5 76.5h128q0 -1 0.5 -10t6 -20t19 -19.5t40.5 -8.5q23 0 33.5 6t13.5 13t3 11q0 15 -17 24t-44 16.5t-57.5 17t-57.5 25t-44 40.5t-17 64q0 64 47.5 93t119.5 29q45 0 82 -10.5t64 -31t42.5 -51t16.5 -70.5
h-126q0 17 -6 28.5t-16.5 18t-23 9.5t-26.5 3q-29 0 -38 -9.5t-9 -19.5q0 -18 17.5 -28.5t45 -18.5t59 -17t59 -23.5t45 -38t17.5 -60.5q0 -39 -21.5 -65.5t-61.5 -40.5t-96 -14zM246 461h-62v17l39 97h115v-22z" />
    <glyph glyph-name="Scedilla" unicode="&#x15e;" horiz-adv-x="584" 
d="M282 -10q-48 0 -94 11t-83 35.5t-59.5 63.5t-22.5 94h140q0 -5 2.5 -14t10.5 -20t22 -21t37.5 -16.5t57.5 -6.5q14 0 29.5 1.5t28.5 6t21 13.5t8 24q0 21 -19.5 33t-51 19.5t-69 15.5t-74.5 20t-67.5 32.5t-47 53t-13.5 81.5q4 49 34 84t85 54t132 19q62 0 116.5 -22
t89 -67t34.5 -114h-135q0 23 -12 37.5t-31 22t-40 10t-38 2.5q-37 0 -61.5 -9t-24.5 -35q0 -23 20 -35.5t52 -20t70.5 -15t76.5 -18.5t68.5 -30.5t48 -51.5t13.5 -82q-3 -49 -35.5 -83.5t-88 -53t-130.5 -18.5zM175 -151l39 64q10 -7 37.5 -15.5t50.5 -8.5q15 0 25.5 4.5
t10.5 17.5q0 9 -10.5 14.5t-24.5 5.5q-9 0 -17.5 -2.5t-15.5 -9.5l-57 26l46 101l60 -23l-36 -61q11 8 25.5 12t30.5 4q32 0 61 -17.5t29 -55.5q0 -43 -37.5 -66t-90.5 -23q-31 0 -63.5 8.5t-62.5 24.5z" />
    <glyph glyph-name="scedilla" unicode="&#x15f;" horiz-adv-x="427" 
d="M221 -10q-7 0 -29.5 1.5t-51 9t-55.5 24.5t-44.5 46.5t-17.5 76.5h128q0 -1 0.5 -10t6 -20t19 -19.5t40.5 -8.5q23 0 33.5 6t13.5 13t3 11q0 15 -17 24t-44 16.5t-57.5 17t-57.5 25t-44 40.5t-17 64q0 64 47.5 93t119.5 29q45 0 82 -10.5t64 -31t42.5 -51t16.5 -70.5
h-126q0 17 -6 28.5t-16.5 18t-23 9.5t-26.5 3q-29 0 -38 -9.5t-9 -19.5q0 -18 17.5 -28.5t45 -18.5t59 -17t59 -23.5t45 -38t17.5 -60.5q0 -39 -21.5 -65.5t-61.5 -40.5t-96 -14zM97 -151l39 64q10 -7 37.5 -15.5t50.5 -8.5q15 0 25.5 4.5t10.5 17.5q0 9 -10.5 14.5
t-24.5 5.5q-9 0 -17.5 -2.5t-15.5 -9.5l-57 26l46 101l60 -23l-36 -61q11 8 25.5 12t30.5 4q32 0 61 -17.5t29 -55.5q0 -43 -37.5 -66t-90.5 -23q-31 0 -63.5 8.5t-62.5 24.5z" />
    <glyph glyph-name="Scaron" unicode="&#x160;" horiz-adv-x="584" 
d="M282 -10q-48 0 -94 11t-83 35.5t-59.5 63.5t-22.5 94h140q0 -5 2.5 -14t10.5 -20t22 -21t37.5 -16.5t57.5 -6.5q14 0 29.5 1.5t28.5 6t21 13.5t8 24q0 21 -19.5 33t-51 19.5t-69 15.5t-74.5 20t-67.5 32.5t-47 53t-13.5 81.5q4 49 34 84t85 54t132 19q62 0 116.5 -22
t89 -67t34.5 -114h-135q0 23 -12 37.5t-31 22t-40 10t-38 2.5q-37 0 -61.5 -9t-24.5 -35q0 -23 20 -35.5t52 -20t70.5 -15t76.5 -18.5t68.5 -30.5t48 -51.5t13.5 -82q-3 -49 -35.5 -83.5t-88 -53t-130.5 -18.5zM263 610l-127 114v10h124l29 -36h6l32 36h120v-10l-126 -114
h-58z" />
    <glyph glyph-name="scaron" unicode="&#x161;" horiz-adv-x="427" 
d="M221 -10q-7 0 -29.5 1.5t-51 9t-55.5 24.5t-44.5 46.5t-17.5 76.5h128q0 -1 0.5 -10t6 -20t19 -19.5t40.5 -8.5q23 0 33.5 6t13.5 13t3 11q0 15 -17 24t-44 16.5t-57.5 17t-57.5 25t-44 40.5t-17 64q0 64 47.5 93t119.5 29q45 0 82 -10.5t64 -31t42.5 -51t16.5 -70.5
h-126q0 17 -6 28.5t-16.5 18t-23 9.5t-26.5 3q-29 0 -38 -9.5t-9 -19.5q0 -18 17.5 -28.5t45 -18.5t59 -17t59 -23.5t45 -38t17.5 -60.5q0 -39 -21.5 -65.5t-61.5 -40.5t-96 -14zM185 461l-127 114v10h124l29 -36h6l32 36h120v-10l-126 -114h-58z" />
    <glyph glyph-name="uni0162" unicode="&#x162;" horiz-adv-x="480" 
d="M302 545v-545h-140v545h140zM10 444v119h445v-119h-445zM123 -151l39 64q10 -7 37.5 -15.5t50.5 -8.5q15 0 25.5 4.5t10.5 17.5q0 9 -10.5 14.5t-24.5 5.5q-9 0 -17.5 -2.5t-15.5 -9.5l-57 26l46 101l60 -23l-36 -61q11 8 25.5 12t30.5 4q32 0 61 -17.5t29 -55.5
q0 -43 -37.5 -66t-90.5 -23q-31 0 -63.5 8.5t-62.5 24.5z" />
    <glyph glyph-name="uni0163" unicode="&#x163;" horiz-adv-x="334" 
d="M203 0q-60 0 -95 28t-35 102v202h130v-225h96v-107h-96zM15 319v95q18 0 32 3.5t24.5 14t16 31.5t5.5 56h110v-105h93v-95h-281zM50 -151l39 64q10 -7 37.5 -15.5t50.5 -8.5q15 0 25.5 4.5t10.5 17.5q0 9 -10.5 14.5t-24.5 5.5q-9 0 -17.5 -2.5t-15.5 -9.5l-57 26l46 101
l60 -23l-36 -61q11 8 25.5 12t30.5 4q32 0 61 -17.5t29 -55.5q0 -43 -37.5 -66t-90.5 -23q-31 0 -63.5 8.5t-62.5 24.5z" />
    <glyph glyph-name="Tcaron" unicode="&#x164;" horiz-adv-x="480" 
d="M302 545v-545h-140v545h140zM10 444v119h445v-119h-445zM211 610l-127 114v10h124l29 -36h6l32 36h120v-10l-126 -114h-58z" />
    <glyph glyph-name="tcaron" unicode="&#x165;" horiz-adv-x="334" 
d="M203 0q-60 0 -95 28t-35 102v202h130v-225h96v-107h-96zM15 319v95q18 0 32 3.5t24.5 14t16 31.5t5.5 56h110v-105h93v-95h-281zM244 467l27 174h130l-76 -174h-81z" />
    <glyph glyph-name="Tbar" unicode="&#x166;" horiz-adv-x="480" 
d="M10 444v119h445v-119h-445zM58 237v96h350v-96h-350zM303 545v-545h-140v545h140z" />
    <glyph glyph-name="tbar" unicode="&#x167;" horiz-adv-x="334" 
d="M296 19q-36 -24 -75 -27.5t-72.5 12.5t-54.5 51.5t-21 89.5v190h130v-149q0 -43 10.5 -64t26.5 -27.5t32 -4t27 5.5zM15 159v96h281v-96h-281zM15 310v107q18 0 32 3.5t24.5 14t16 31.5t5.5 56h110v-105h93v-107h-281z" />
    <glyph glyph-name="Utilde" unicode="&#x168;" horiz-adv-x="614" 
d="M310 -14q-126 0 -190.5 66.5t-64.5 187.5v323h150v-322q0 -42 11 -66.5t27.5 -36.5t34.5 -15.5t32 -3.5q23 0 47.5 7t41.5 33t17 82v322h150v-323q0 -123 -63.5 -188.5t-192.5 -65.5zM158 625q0 12 0.5 33.5t7.5 44t26 38.5t56 16q28 0 44.5 -9t26.5 -20t19 -20t21 -9
q15 0 17.5 14.5t2.5 39.5h78q0 -19 -1.5 -41.5t-9.5 -43.5t-26.5 -34.5t-52.5 -13.5q-28 0 -44 9t-26 20t-18 20t-22 9q-16 0 -18.5 -13.5t-2.5 -39.5h-78z" />
    <glyph glyph-name="utilde" unicode="&#x169;" horiz-adv-x="476" 
d="M170 -10q-45 0 -72.5 16t-42 41.5t-19.5 55t-5.5 57t-0.5 46.5v208h136v-209q0 -21 3.5 -42.5t18 -36t47.5 -14.5t47 14.5t17 36t3 42.5v209h144v-414h-121l-23 66h-2l-5.5 -11.5t-19.5 -26.5t-39.5 -26.5t-65.5 -11.5zM89 476q0 12 0.5 33.5t7.5 44t26 38.5t56 16
q28 0 44.5 -9t26.5 -20t19 -20t21 -9q15 0 17.5 14.5t2.5 39.5h78q0 -19 -1.5 -41.5t-9.5 -43.5t-26.5 -34.5t-52.5 -13.5q-28 0 -44 9t-26 20t-18 20t-22 9q-16 0 -18.5 -13.5t-2.5 -39.5h-78z" />
    <glyph glyph-name="Umacron" unicode="&#x16a;" horiz-adv-x="614" 
d="M310 -14q-126 0 -190.5 66.5t-64.5 187.5v323h150v-322q0 -42 11 -66.5t27.5 -36.5t34.5 -15.5t32 -3.5q23 0 47.5 7t41.5 33t17 82v322h150v-323q0 -123 -63.5 -188.5t-192.5 -65.5zM156 630v94h302v-94h-302z" />
    <glyph glyph-name="umacron" unicode="&#x16b;" horiz-adv-x="476" 
d="M170 -10q-45 0 -72.5 16t-42 41.5t-19.5 55t-5.5 57t-0.5 46.5v208h136v-209q0 -21 3.5 -42.5t18 -36t47.5 -14.5t47 14.5t17 36t3 42.5v209h144v-414h-121l-23 66h-2l-5.5 -11.5t-19.5 -26.5t-39.5 -26.5t-65.5 -11.5zM87 481v94h302v-94h-302z" />
    <glyph glyph-name="Ubreve" unicode="&#x16c;" horiz-adv-x="614" 
d="M310 -14q-126 0 -190.5 66.5t-64.5 187.5v323h150v-322q0 -42 11 -66.5t27.5 -36.5t34.5 -15.5t32 -3.5q23 0 47.5 7t41.5 33t17 82v322h150v-323q0 -123 -63.5 -188.5t-192.5 -65.5zM307 613q-70 0 -108.5 32t-38.5 87h97q0 -25 14 -35.5t36 -10.5q23 0 36 10t13 36h97
q0 -55 -37.5 -87t-108.5 -32z" />
    <glyph glyph-name="ubreve" unicode="&#x16d;" horiz-adv-x="476" 
d="M170 -10q-45 0 -72.5 16t-42 41.5t-19.5 55t-5.5 57t-0.5 46.5v208h136v-209q0 -21 3.5 -42.5t18 -36t47.5 -14.5t47 14.5t17 36t3 42.5v209h144v-414h-121l-23 66h-2l-5.5 -11.5t-19.5 -26.5t-39.5 -26.5t-65.5 -11.5zM238 464q-70 0 -108.5 32t-38.5 87h97
q0 -25 14 -35.5t36 -10.5q23 0 36 10t13 36h97q0 -55 -37.5 -87t-108.5 -32z" />
    <glyph glyph-name="Uring" unicode="&#x16e;" horiz-adv-x="614" 
d="M310 -14q-126 0 -190.5 66.5t-64.5 187.5v323h150v-322q0 -42 11 -66.5t27.5 -36.5t34.5 -15.5t32 -3.5q23 0 47.5 7t41.5 33t17 82v322h150v-323q0 -123 -63.5 -188.5t-192.5 -65.5zM305 621q-56 0 -81.5 29t-25.5 77q0 50 25 79.5t82 29.5q56 0 83 -29.5t27 -79.5
q0 -46 -27 -76t-83 -30zM303 701q17 0 24 8t7 21t-7 22t-23 9q-17 0 -24 -9.5t-7 -21.5q0 -13 7 -21t23 -8z" />
    <glyph glyph-name="uring" unicode="&#x16f;" horiz-adv-x="476" 
d="M170 -10q-45 0 -72.5 16t-42 41.5t-19.5 55t-5.5 57t-0.5 46.5v208h136v-209q0 -21 3.5 -42.5t18 -36t47.5 -14.5t47 14.5t17 36t3 42.5v209h144v-414h-121l-23 66h-2l-5.5 -11.5t-19.5 -26.5t-39.5 -26.5t-65.5 -11.5zM236 472q-56 0 -81.5 29t-25.5 77q0 50 25 79.5
t82 29.5q56 0 83 -29.5t27 -79.5q0 -46 -27 -76t-83 -30zM234 552q17 0 24 8t7 21t-7 22t-23 9q-17 0 -24 -9.5t-7 -21.5q0 -13 7 -21t23 -8z" />
    <glyph glyph-name="Uhungarumlaut" unicode="&#x170;" horiz-adv-x="614" 
d="M310 -14q-126 0 -190.5 66.5t-64.5 187.5v323h150v-322q0 -42 11 -66.5t27.5 -36.5t34.5 -15.5t32 -3.5q23 0 47.5 7t41.5 33t17 82v322h150v-323q0 -123 -63.5 -188.5t-192.5 -65.5zM151 641l67 158l107 -53l-112 -135zM352 641l67 158l107 -53l-112 -135z" />
    <glyph glyph-name="uhungarumlaut" unicode="&#x171;" horiz-adv-x="476" 
d="M170 -10q-45 0 -72.5 16t-42 41.5t-19.5 55t-5.5 57t-0.5 46.5v208h136v-209q0 -21 3.5 -42.5t18 -36t47.5 -14.5t47 14.5t17 36t3 42.5v209h144v-414h-121l-23 66h-2l-5.5 -11.5t-19.5 -26.5t-39.5 -26.5t-65.5 -11.5zM82 492l67 158l107 -53l-112 -135zM283 492l67 158
l107 -53l-112 -135z" />
    <glyph glyph-name="Uogonek" unicode="&#x172;" horiz-adv-x="614" 
d="M316 -186q-24 0 -50 9t-44 29.5t-18 56.5q0 31 17 55.5t42.5 41.5t51 28.5t42.5 16.5l17 5v-62l-10.5 -4t-24.5 -11.5t-24.5 -18.5t-10.5 -26q0 -10 7 -16t18 -6q12 0 21 6.5t14 13l5 6.5l71 -64l-13.5 -15t-40.5 -30t-70 -15zM310 -14q-126 0 -190.5 66.5t-64.5 187.5
v323h150v-322q0 -42 11 -66.5t27.5 -36.5t34.5 -15.5t32 -3.5q23 0 47.5 7t41.5 33t17 82v322h150v-323q0 -123 -63.5 -188.5t-192.5 -65.5z" />
    <glyph glyph-name="uogonek" unicode="&#x173;" horiz-adv-x="476" 
d="M170 -10q-45 0 -72.5 16t-42 41.5t-19.5 55t-5.5 57t-0.5 46.5v208h136v-209q0 -21 3.5 -42.5t18 -36t47.5 -14.5t47 14.5t17 36t3 42.5v209h144v-414h-121l-23 66h-2l-5.5 -11.5t-19.5 -26.5t-39.5 -26.5t-65.5 -11.5zM381 -180q-24 0 -50 9t-44 29.5t-18 56.5
q0 31 17 55.5t41.5 41.5t49 28.5t41.5 16.5l17 5v-62l-10 -4t-23 -11.5t-23 -18.5t-10 -26q0 -10 7 -16t18 -6q12 0 21 6.5t14 13l5 6.5l71 -64l-13.5 -15t-40.5 -30t-70 -15z" />
    <glyph glyph-name="Wcircumflex" unicode="&#x174;" horiz-adv-x="802" 
d="M328 563h148l-74 -176l-47 -387h-224l-111 563h148l74 -506zM634 563h148l-104 -563h-223l-53 387l-76 176h150l91 -506zM245 617v10l127 114h58l126 -114v-10h-120l-32 36h-6l-29 -36h-124z" />
    <glyph glyph-name="wcircumflex" unicode="&#x175;" horiz-adv-x="669" 
d="M91 0l-82 395v21h138l44 -300h2l71 300h119l75 -300h2l45 300h137v-21l-86 -395h-193l-38 175h-2l-35 -175h-197zM179 468v10l127 114h58l126 -114v-10h-120l-32 36h-6l-29 -36h-124z" />
    <glyph glyph-name="Ycircumflex" unicode="&#x176;" horiz-adv-x="464" 
d="M162 194l-191 369h157l107 -251l107 251h157l-197 -369h-140zM163 0v207h139v-207h-139zM76 617v10l127 114h58l126 -114v-10h-120l-32 36h-6l-29 -36h-124z" />
    <glyph glyph-name="ycircumflex" unicode="&#x177;" 
d="M0 -199v106h70q15 0 28 1.5t25.5 13t25.5 41.5l12 28l-161 423h143l85 -282l93 282h143l-187 -462q-21 -51 -39 -81t-38 -45t-45.5 -20t-61.5 -5h-93zM81 468v10l127 114h58l126 -114v-10h-120l-32 36h-6l-29 -36h-124z" />
    <glyph glyph-name="Ydieresis" unicode="&#x178;" horiz-adv-x="464" 
d="M162 194l-191 369h157l107 -251l107 251h157l-197 -369h-140zM163 0v207h139v-207h-139zM130 604q-45 0 -60.5 22.5t-15.5 53.5q0 29 15.5 51.5t60.5 22.5t59.5 -22.5t14.5 -51.5q0 -31 -14.5 -53.5t-59.5 -22.5zM336 604q-45 0 -60.5 22.5t-15.5 53.5q0 29 15.5 51.5
t60.5 22.5t59.5 -22.5t14.5 -51.5q0 -31 -14.5 -53.5t-59.5 -22.5z" />
    <glyph glyph-name="Zacute" unicode="&#x179;" horiz-adv-x="583" 
d="M50 0v117l306 327h-287v119h466v-119l-299 -325h298v-119h-484zM324 610h-62v17l39 97h115v-22z" />
    <glyph glyph-name="zacute" unicode="&#x17a;" horiz-adv-x="459" 
d="M35 0v100l220 216h-206v101h365v-98l-212 -217h212v-102h-379zM262 461h-62v17l39 97h115v-22z" />
    <glyph glyph-name="Zdotaccent" unicode="&#x17b;" horiz-adv-x="583" 
d="M50 0v117l306 327h-287v119h466v-119l-299 -325h298v-119h-484zM293 608q-42 0 -56.5 21.5t-14.5 49.5q0 27 14.5 48t56.5 21t55.5 -21t13.5 -48q0 -28 -13.5 -49.5t-55.5 -21.5z" />
    <glyph glyph-name="zdotaccent" unicode="&#x17c;" horiz-adv-x="459" 
d="M35 0v100l220 216h-206v101h365v-98l-212 -217h212v-102h-379zM231 459q-42 0 -56.5 21.5t-14.5 49.5q0 27 14.5 48t56.5 21t55.5 -21t13.5 -48q0 -28 -13.5 -49.5t-55.5 -21.5z" />
    <glyph glyph-name="Zcaron" unicode="&#x17d;" horiz-adv-x="583" 
d="M50 0v117l306 327h-287v119h466v-119l-299 -325h298v-119h-484zM263 610l-127 114v10h124l29 -36h6l32 36h120v-10l-126 -114h-58z" />
    <glyph glyph-name="zcaron" unicode="&#x17e;" horiz-adv-x="459" 
d="M35 0v100l220 216h-206v101h365v-98l-212 -217h212v-102h-379zM201 461l-127 114v10h124l29 -36h6l32 36h120v-10l-126 -114h-58z" />
    <glyph glyph-name="Ohorn" unicode="&#x1a0;" horiz-adv-x="619" 
d="M302 -14q-140 0 -214 79.5t-74 214.5q0 89 32 154.5t96 102t160 36.5q140 0 213 -79.5t73 -213.5q0 -87 -32.5 -153.5t-96 -103.5t-157.5 -37zM300 121q51 0 84.5 21.5t50 58t16.5 79.5q0 44 -16.5 81t-50 59t-84.5 22q-73 0 -111.5 -46t-38.5 -116q0 -42 16.5 -78.5
t49.5 -58.5t84 -22zM376 484v79h54q17 0 23 4t7 16.5t1 39.5h86q0 -52 -10.5 -82.5t-39 -43.5t-82.5 -13h-39z" />
    <glyph glyph-name="ohorn" unicode="&#x1a1;" horiz-adv-x="487" 
d="M239 -10q-73 0 -122 27.5t-73 75.5t-24 109q0 62 24 110t73 75.5t122 27.5q107 0 162.5 -58.5t55.5 -154.5q0 -60 -23.5 -108t-71.5 -76t-123 -28zM239 106q37 0 55 15t23.5 38.5t5.5 47.5q0 25 -5.5 48t-23.5 38.5t-55 15.5t-55.5 -15.5t-24 -38.5t-5.5 -48
q0 -24 5.5 -47.5t24 -38.5t55.5 -15zM267 335v79h54q17 0 23 4t7 16.5t1 39.5h86q0 -52 -10.5 -82.5t-39 -43.5t-82.5 -13h-39z" />
    <glyph glyph-name="Uhorn" unicode="&#x1af;" horiz-adv-x="614" 
d="M310 -14q-126 0 -190.5 66.5t-64.5 187.5v323h150v-322q0 -42 11 -66.5t27.5 -36.5t34.5 -15.5t32 -3.5q23 0 47.5 7t41.5 33t17 82v322h150v-323q0 -123 -63.5 -188.5t-192.5 -65.5zM509 484v79h54q17 0 23 4t7 16.5t1 39.5h86q0 -52 -10.5 -82.5t-39 -43.5t-82.5 -13
h-39z" />
    <glyph glyph-name="uhorn" unicode="&#x1b0;" horiz-adv-x="476" 
d="M170 -10q-45 0 -72.5 16t-42 41.5t-19.5 55t-5.5 57t-0.5 46.5v208h136v-209q0 -21 3.5 -42.5t18 -36t47.5 -14.5t47 14.5t17 36t3 42.5v209h144v-414h-121l-23 66h-2l-5.5 -11.5t-19.5 -26.5t-39.5 -26.5t-65.5 -11.5zM365 335v79h54q17 0 23 4t7 16.5t1 39.5h86
q0 -52 -10.5 -82.5t-39 -43.5t-82.5 -13h-39z" />
    <glyph glyph-name="uni0218" unicode="&#x218;" horiz-adv-x="584" 
d="M282 -10q-48 0 -94 11t-83 35.5t-59.5 63.5t-22.5 94h140q0 -5 2.5 -14t10.5 -20t22 -21t37.5 -16.5t57.5 -6.5q14 0 29.5 1.5t28.5 6t21 13.5t8 24q0 21 -19.5 33t-51 19.5t-69 15.5t-74.5 20t-67.5 32.5t-47 53t-13.5 81.5q4 49 34 84t85 54t132 19q62 0 116.5 -22
t89 -67t34.5 -114h-135q0 23 -12 37.5t-31 22t-40 10t-38 2.5q-37 0 -61.5 -9t-24.5 -35q0 -23 20 -35.5t52 -20t70.5 -15t76.5 -18.5t68.5 -30.5t48 -51.5t13.5 -82q-3 -49 -35.5 -83.5t-88 -53t-130.5 -18.5zM220 -293v85h31q27 0 40 5t13 26q-48 0 -66 21t-18 50
q0 30 17 50.5t57 20.5q30 0 50 -18.5t20 -78.5q0 -41 -11.5 -78t-36 -60t-65.5 -23h-31z" />
    <glyph glyph-name="uni0219" unicode="&#x219;" horiz-adv-x="427" 
d="M221 -10q-7 0 -29.5 1.5t-51 9t-55.5 24.5t-44.5 46.5t-17.5 76.5h128q0 -1 0.5 -10t6 -20t19 -19.5t40.5 -8.5q23 0 33.5 6t13.5 13t3 11q0 15 -17 24t-44 16.5t-57.5 17t-57.5 25t-44 40.5t-17 64q0 64 47.5 93t119.5 29q45 0 82 -10.5t64 -31t42.5 -51t16.5 -70.5
h-126q0 17 -6 28.5t-16.5 18t-23 9.5t-26.5 3q-29 0 -38 -9.5t-9 -19.5q0 -18 17.5 -28.5t45 -18.5t59 -17t59 -23.5t45 -38t17.5 -60.5q0 -39 -21.5 -65.5t-61.5 -40.5t-96 -14zM142 -293v85h31q27 0 40 5t13 26q-48 0 -66 21t-18 50q0 30 17 50.5t57 20.5q30 0 50 -18.5
t20 -78.5q0 -41 -11.5 -78t-36 -60t-65.5 -23h-31z" />
    <glyph glyph-name="uni021A" unicode="&#x21a;" horiz-adv-x="480" 
d="M302 545v-545h-140v545h140zM10 444v119h445v-119h-445zM168 -293v85h31q27 0 40 5t13 26q-48 0 -66 21t-18 50q0 30 17 50.5t57 20.5q30 0 50 -18.5t20 -78.5q0 -41 -11.5 -78t-36 -60t-65.5 -23h-31z" />
    <glyph glyph-name="uni021B" unicode="&#x21b;" horiz-adv-x="334" 
d="M203 0q-60 0 -95 28t-35 102v202h130v-225h96v-107h-96zM15 319v95q18 0 32 3.5t24.5 14t16 31.5t5.5 56h110v-105h93v-95h-281zM95 -293v85h31q27 0 40 5t13 26q-48 0 -66 21t-18 50q0 30 17 50.5t57 20.5q30 0 50 -18.5t20 -78.5q0 -41 -11.5 -78t-36 -60t-65.5 -23
h-31z" />
    <glyph glyph-name="uni0237" unicode="&#x237;" horiz-adv-x="277" 
d="M57 414h140v-483q0 -74 -35 -102t-95 -28h-77v107h67v506z" />
    <glyph glyph-name="circumflex" unicode="&#x2c6;" horiz-adv-x="489" 
d="M89 468v10l127 114h58l126 -114v-10h-120l-32 36h-6l-29 -36h-124z" />
    <glyph glyph-name="caron" unicode="&#x2c7;" horiz-adv-x="449" 
d="M196 461l-127 114v10h124l29 -36h6l32 36h120v-10l-126 -114h-58z" />
    <glyph glyph-name="breve" unicode="&#x2d8;" horiz-adv-x="401" 
d="M201 464q-70 0 -108.5 32t-38.5 87h97q0 -25 14 -35.5t36 -10.5q23 0 36 10t13 36h97q0 -55 -37.5 -87t-108.5 -32z" />
    <glyph glyph-name="dotaccent" unicode="&#x2d9;" horiz-adv-x="240" 
d="M121 459q-42 0 -56.5 21.5t-14.5 49.5q0 27 14.5 48t56.5 21t55.5 -21t13.5 -48q0 -28 -13.5 -49.5t-55.5 -21.5z" />
    <glyph glyph-name="ring" unicode="&#x2da;" horiz-adv-x="277" 
d="M137 472q-56 0 -81.5 29t-25.5 77q0 50 25 79.5t82 29.5q56 0 83 -29.5t27 -79.5q0 -46 -27 -76t-83 -30zM135 552q17 0 24 8t7 21t-7 22t-23 9q-17 0 -24 -9.5t-7 -21.5q0 -13 7 -21t23 -8z" />
    <glyph glyph-name="ogonek" unicode="&#x2db;" horiz-adv-x="326" 
d="M157 -199q-24 0 -50 9t-44 29.5t-18 56.5q0 31 17 55.5t41.5 41.5t49 28.5t41.5 16.5l17 5v-62l-10 -4t-23 -11.5t-23 -18.5t-10 -26q0 -10 7 -16t18 -6q12 0 21 6.5t14 13l5 6.5l71 -64l-13.5 -15t-40.5 -30t-70 -15z" />
    <glyph glyph-name="tilde" unicode="&#x2dc;" horiz-adv-x="387" 
d="M44 476q0 12 0.5 33.5t7.5 44t26 38.5t56 16q28 0 44.5 -9t26.5 -20t19 -20t21 -9q15 0 17.5 14.5t2.5 39.5h78q0 -19 -1.5 -41.5t-9.5 -43.5t-26.5 -34.5t-52.5 -13.5q-28 0 -44 9t-26 20t-18 20t-22 9q-16 0 -18.5 -13.5t-2.5 -39.5h-78z" />
    <glyph glyph-name="hungarumlaut" unicode="&#x2dd;" horiz-adv-x="441" 
d="M33 492l67 158l107 -53l-112 -135zM234 492l67 158l107 -53l-112 -135z" />
    <glyph glyph-name="gravecomb" unicode="&#x300;" horiz-adv-x="0" 
d="M125 461l-92 92v22h115l39 -97v-17h-62z" />
    <glyph glyph-name="acutecomb" unicode="&#x301;" horiz-adv-x="0" 
d="M95 461h-62v17l39 97h115v-22z" />
    <glyph glyph-name="uni0302" unicode="&#x302;" horiz-adv-x="0" 
d="M89 468v10l127 114h58l126 -114v-10h-120l-32 36h-6l-29 -36h-124z" />
    <glyph glyph-name="tildecomb" unicode="&#x303;" horiz-adv-x="0" 
d="M44 476q0 12 0.5 33.5t7.5 44t26 38.5t56 16q28 0 44.5 -9t26.5 -20t19 -20t21 -9q15 0 17.5 14.5t2.5 39.5h78q0 -19 -1.5 -41.5t-9.5 -43.5t-26.5 -34.5t-52.5 -13.5q-28 0 -44 9t-26 20t-18 20t-22 9q-16 0 -18.5 -13.5t-2.5 -39.5h-78z" />
    <glyph glyph-name="uni0304" unicode="&#x304;" horiz-adv-x="0" 
d="M40 481v94h302v-94h-302z" />
    <glyph glyph-name="uni0306" unicode="&#x306;" horiz-adv-x="0" 
d="M201 464q-70 0 -108.5 32t-38.5 87h97q0 -25 14 -35.5t36 -10.5q23 0 36 10t13 36h97q0 -55 -37.5 -87t-108.5 -32z" />
    <glyph glyph-name="uni0307" unicode="&#x307;" horiz-adv-x="0" 
d="M121 459q-42 0 -56.5 21.5t-14.5 49.5q0 27 14.5 48t56.5 21t55.5 -21t13.5 -48q0 -28 -13.5 -49.5t-55.5 -21.5z" />
    <glyph glyph-name="uni0308" unicode="&#x308;" horiz-adv-x="0" 
d="M121 455q-45 0 -60.5 22.5t-15.5 53.5q0 29 15.5 51.5t60.5 22.5t59.5 -22.5t14.5 -51.5q0 -31 -14.5 -53.5t-59.5 -22.5zM327 455q-45 0 -60.5 22.5t-15.5 53.5q0 29 15.5 51.5t60.5 22.5t59.5 -22.5t14.5 -51.5q0 -31 -14.5 -53.5t-59.5 -22.5z" />
    <glyph glyph-name="hookabovecomb" unicode="&#x309;" horiz-adv-x="0" 
d="M107 458v20q7 13 23 22t30.5 20t14.5 29q0 12 -9.5 17.5t-22.5 5.5t-25.5 -6.5t-17.5 -18.5l-52 37q11 36 42 54t66 18q38 0 69.5 -22.5t31.5 -69.5q0 -33 -13 -50.5t-28.5 -29t-23.5 -26.5h-85z" />
    <glyph glyph-name="uni030A" unicode="&#x30a;" horiz-adv-x="0" 
d="M137 472q-56 0 -81.5 29t-25.5 77q0 50 25 79.5t82 29.5q56 0 83 -29.5t27 -79.5q0 -46 -27 -76t-83 -30zM135 552q17 0 24 8t7 21t-7 22t-23 9q-17 0 -24 -9.5t-7 -21.5q0 -13 7 -21t23 -8z" />
    <glyph glyph-name="uni030B" unicode="&#x30b;" horiz-adv-x="0" 
d="M33 492l67 158l107 -53l-112 -135zM234 492l67 158l107 -53l-112 -135z" />
    <glyph glyph-name="uni030C" unicode="&#x30c;" horiz-adv-x="0" 
d="M196 461l-127 114v10h124l29 -36h6l32 36h120v-10l-126 -114h-58z" />
    <glyph glyph-name="uni0312" unicode="&#x312;" horiz-adv-x="0" 
d="M113 462h-62v17l39 97h115v-22z" />
    <glyph glyph-name="uni031B" unicode="&#x31b;" horiz-adv-x="0" 
d="M44 579v79h54q17 0 23 4t7 16.5t1 39.5h86q0 -52 -10.5 -82.5t-39 -43.5t-82.5 -13h-39z" />
    <glyph glyph-name="dotbelowcomb" unicode="&#x323;" horiz-adv-x="0" 
d="M111 -210q-42 0 -56.5 21.5t-14.5 49.5q0 27 14.5 48t56.5 21t55.5 -21t13.5 -48q0 -28 -13.5 -49.5t-55.5 -21.5z" />
    <glyph glyph-name="uni0326" unicode="&#x326;" horiz-adv-x="0" 
d="M59 -293v85h31q27 0 40 5t13 26q-48 0 -66 21t-18 50q0 30 17 50.5t57 20.5q30 0 50 -18.5t20 -78.5q0 -41 -11.5 -78t-36 -60t-65.5 -23h-31z" />
    <glyph glyph-name="uni0327" unicode="&#x327;" horiz-adv-x="0" 
d="M40 -120l39 64q10 -7 37.5 -15.5t50.5 -8.5q15 0 25.5 4.5t10.5 17.5q0 9 -10.5 14.5t-24.5 5.5q-9 0 -17.5 -2.5t-15.5 -9.5l-57 26l46 101l60 -23l-36 -61q11 8 25.5 12t30.5 4q32 0 61 -17.5t29 -55.5q0 -43 -37.5 -66t-90.5 -23q-31 0 -63.5 8.5t-62.5 24.5z" />
    <glyph glyph-name="uni0328" unicode="&#x328;" horiz-adv-x="0" 
d="M157 -199q-24 0 -50 9t-44 29.5t-18 56.5q0 31 17 55.5t41.5 41.5t49 28.5t41.5 16.5l17 5v-62l-10 -4t-23 -11.5t-23 -18.5t-10 -26q0 -10 7 -16t18 -6q12 0 21 6.5t14 13l5 6.5l71 -64l-13.5 -15t-40.5 -30t-70 -15z" />
    <glyph glyph-name="Wgrave" unicode="&#x1e80;" horiz-adv-x="802" 
d="M328 563h148l-74 -176l-47 -387h-224l-111 563h148l74 -506zM634 563h148l-104 -563h-223l-53 387l-76 176h150l91 -506zM365 610l-92 92v22h115l39 -97v-17h-62z" />
    <glyph glyph-name="wgrave" unicode="&#x1e81;" horiz-adv-x="669" 
d="M91 0l-82 395v21h138l44 -300h2l71 300h119l75 -300h2l45 300h137v-21l-86 -395h-193l-38 175h-2l-35 -175h-197zM299 461l-92 92v22h115l39 -97v-17h-62z" />
    <glyph glyph-name="Wacute" unicode="&#x1e82;" horiz-adv-x="802" 
d="M328 563h148l-74 -176l-47 -387h-224l-111 563h148l74 -506zM634 563h148l-104 -563h-223l-53 387l-76 176h150l91 -506zM433 610h-62v17l39 97h115v-22z" />
    <glyph glyph-name="wacute" unicode="&#x1e83;" horiz-adv-x="669" 
d="M91 0l-82 395v21h138l44 -300h2l71 300h119l75 -300h2l45 300h137v-21l-86 -395h-193l-38 175h-2l-35 -175h-197zM367 461h-62v17l39 97h115v-22z" />
    <glyph glyph-name="Wdieresis" unicode="&#x1e84;" horiz-adv-x="802" 
d="M328 563h148l-74 -176l-47 -387h-224l-111 563h148l74 -506zM634 563h148l-104 -563h-223l-53 387l-76 176h150l91 -506zM299 604q-45 0 -60.5 22.5t-15.5 53.5q0 29 15.5 51.5t60.5 22.5t59.5 -22.5t14.5 -51.5q0 -31 -14.5 -53.5t-59.5 -22.5zM505 604
q-45 0 -60.5 22.5t-15.5 53.5q0 29 15.5 51.5t60.5 22.5t59.5 -22.5t14.5 -51.5q0 -31 -14.5 -53.5t-59.5 -22.5z" />
    <glyph glyph-name="wdieresis" unicode="&#x1e85;" horiz-adv-x="669" 
d="M91 0l-82 395v21h138l44 -300h2l71 300h119l75 -300h2l45 300h137v-21l-86 -395h-193l-38 175h-2l-35 -175h-197zM233 455q-45 0 -60.5 22.5t-15.5 53.5q0 29 15.5 51.5t60.5 22.5t59.5 -22.5t14.5 -51.5q0 -31 -14.5 -53.5t-59.5 -22.5zM439 455q-45 0 -60.5 22.5
t-15.5 53.5q0 29 15.5 51.5t60.5 22.5t59.5 -22.5t14.5 -51.5q0 -31 -14.5 -53.5t-59.5 -22.5z" />
    <glyph glyph-name="uni1E9E" unicode="&#x1e9e;" horiz-adv-x="596" 
d="M60 -130v753h476v-753h-476zM200 -11h196v515h-196v-515z" />
    <glyph glyph-name="uni1EA0" unicode="&#x1ea0;" horiz-adv-x="591" 
d="M18 0l162 563h229l168 -563h-149l-131 505l-129 -505h-150zM153 141l-5 106h295l-4 -106h-286zM297 -210q-42 0 -56.5 21.5t-14.5 49.5q0 27 14.5 48t56.5 21t55.5 -21t13.5 -48q0 -28 -13.5 -49.5t-55.5 -21.5z" />
    <glyph glyph-name="uni1EA1" unicode="&#x1ea1;" horiz-adv-x="480" 
d="M174 -10q-56 0 -89 25.5t-47 72.5t-14 112t14 113t47 74.5t89 26.5q41 0 66 -11.5t39 -26.5t19.5 -26.5l5.5 -11.5h2v76h144v-414h-122l-22 56h-2q1 0 -5 -10t-20.5 -23t-40 -23t-64.5 -10zM233 105q34 0 49.5 13.5t19.5 35.5t4 45q0 24 -4 45.5t-19.5 34.5t-49.5 13
t-49.5 -13.5t-19.5 -34.5t-4 -45t4 -45.5t19.5 -35t49.5 -13.5zM241 -210q-42 0 -56.5 21.5t-14.5 49.5q0 27 14.5 48t56.5 21t55.5 -21t13.5 -48q0 -28 -13.5 -49.5t-55.5 -21.5z" />
    <glyph glyph-name="uni1EA2" unicode="&#x1ea2;" horiz-adv-x="591" 
d="M18 0l162 563h229l168 -563h-149l-131 505l-129 -505h-150zM153 141l-5 106h295l-4 -106h-286zM253 607v20q7 13 23 22t30.5 20t14.5 29q0 12 -9.5 17.5t-22.5 5.5t-25.5 -6.5t-17.5 -18.5l-52 37q11 36 42 54t66 18q38 0 69.5 -22.5t31.5 -69.5q0 -33 -13 -50.5
t-28.5 -29t-23.5 -26.5h-85z" />
    <glyph glyph-name="uni1EA3" unicode="&#x1ea3;" horiz-adv-x="480" 
d="M174 -10q-56 0 -89 25.5t-47 72.5t-14 112t14 113t47 74.5t89 26.5q41 0 66 -11.5t39 -26.5t19.5 -26.5l5.5 -11.5h2v76h144v-414h-122l-22 56h-2q1 0 -5 -10t-20.5 -23t-40 -23t-64.5 -10zM233 105q34 0 49.5 13.5t19.5 35.5t4 45q0 24 -4 45.5t-19.5 34.5t-49.5 13
t-49.5 -13.5t-19.5 -34.5t-4 -45t4 -45.5t19.5 -35t49.5 -13.5zM197 458v20q7 13 23 22t30.5 20t14.5 29q0 12 -9.5 17.5t-22.5 5.5t-25.5 -6.5t-17.5 -18.5l-52 37q11 36 42 54t66 18q38 0 69.5 -22.5t31.5 -69.5q0 -33 -13 -50.5t-28.5 -29t-23.5 -26.5h-85z" />
    <glyph glyph-name="uni1EA4" unicode="&#x1ea4;" horiz-adv-x="591" 
d="M18 0l162 563h229l168 -563h-149l-131 505l-129 -505h-150zM153 141l-5 106h295l-4 -106h-286zM143 617v10l127 114h58l126 -114v-10h-120l-32 36h-6l-29 -36h-124zM453 713h-62v17l39 97h115v-22z" />
    <glyph glyph-name="uni1EA5" unicode="&#x1ea5;" horiz-adv-x="480" 
d="M174 -10q-56 0 -89 25.5t-47 72.5t-14 112t14 113t47 74.5t89 26.5q41 0 66 -11.5t39 -26.5t19.5 -26.5l5.5 -11.5h2v76h144v-414h-122l-22 56h-2q1 0 -5 -10t-20.5 -23t-40 -23t-64.5 -10zM233 105q34 0 49.5 13.5t19.5 35.5t4 45q0 24 -4 45.5t-19.5 34.5t-49.5 13
t-49.5 -13.5t-19.5 -34.5t-4 -45t4 -45.5t19.5 -35t49.5 -13.5zM87 468v10l127 114h58l126 -114v-10h-120l-32 36h-6l-29 -36h-124zM397 564h-62v17l39 97h115v-22z" />
    <glyph glyph-name="uni1EA6" unicode="&#x1ea6;" horiz-adv-x="591" 
d="M18 0l162 563h229l168 -563h-149l-131 505l-129 -505h-150zM153 141l-5 106h295l-4 -106h-286zM450 712l-92 92v22h115l39 -97v-17h-62zM140 613v10l127 114h58l126 -114v-10h-120l-32 36h-6l-29 -36h-124z" />
    <glyph glyph-name="uni1EA7" unicode="&#x1ea7;" horiz-adv-x="480" 
d="M174 -10q-56 0 -89 25.5t-47 72.5t-14 112t14 113t47 74.5t89 26.5q41 0 66 -11.5t39 -26.5t19.5 -26.5l5.5 -11.5h2v76h144v-414h-122l-22 56h-2q1 0 -5 -10t-20.5 -23t-40 -23t-64.5 -10zM233 105q34 0 49.5 13.5t19.5 35.5t4 45q0 24 -4 45.5t-19.5 34.5t-49.5 13
t-49.5 -13.5t-19.5 -34.5t-4 -45t4 -45.5t19.5 -35t49.5 -13.5zM394 563l-92 92v22h115l39 -97v-17h-62zM84 464v10l127 114h58l126 -114v-10h-120l-32 36h-6l-29 -36h-124z" />
    <glyph glyph-name="uni1EA8" unicode="&#x1ea8;" horiz-adv-x="591" 
d="M18 0l162 563h229l168 -563h-149l-131 505l-129 -505h-150zM153 141l-5 106h295l-4 -106h-286zM140 613v10l127 114h58l126 -114v-10h-120l-32 36h-6l-29 -36h-124zM382 699v20q7 13 23 22t30.5 20t14.5 29q0 12 -9.5 17.5t-22.5 5.5t-25.5 -6.5t-17.5 -18.5l-52 37
q11 36 42 54t66 18q38 0 69.5 -22.5t31.5 -69.5q0 -33 -13 -50.5t-28.5 -29t-23.5 -26.5h-85z" />
    <glyph glyph-name="uni1EA9" unicode="&#x1ea9;" horiz-adv-x="480" 
d="M174 -10q-56 0 -89 25.5t-47 72.5t-14 112t14 113t47 74.5t89 26.5q41 0 66 -11.5t39 -26.5t19.5 -26.5l5.5 -11.5h2v76h144v-414h-122l-22 56h-2q1 0 -5 -10t-20.5 -23t-40 -23t-64.5 -10zM233 105q34 0 49.5 13.5t19.5 35.5t4 45q0 24 -4 45.5t-19.5 34.5t-49.5 13
t-49.5 -13.5t-19.5 -34.5t-4 -45t4 -45.5t19.5 -35t49.5 -13.5zM84 464v10l127 114h58l126 -114v-10h-120l-32 36h-6l-29 -36h-124zM326 550v20q7 13 23 22t30.5 20t14.5 29q0 12 -9.5 17.5t-22.5 5.5t-25.5 -6.5t-17.5 -18.5l-52 37q11 36 42 54t66 18q38 0 69.5 -22.5
t31.5 -69.5q0 -33 -13 -50.5t-28.5 -29t-23.5 -26.5h-85z" />
    <glyph glyph-name="uni1EAA" unicode="&#x1eaa;" horiz-adv-x="591" 
d="M18 0l162 563h229l168 -563h-149l-131 505l-129 -505h-150zM153 141l-5 106h295l-4 -106h-286zM141 613v10l127 114h58l126 -114v-10h-120l-32 36h-6l-29 -36h-124zM141 766q0 12 0.5 33.5t7.5 44t26 38.5t56 16q28 0 44.5 -9t26.5 -20t19 -20t21 -9q15 0 17.5 14.5
t2.5 39.5h78q0 -19 -1.5 -41.5t-9.5 -43.5t-26.5 -34.5t-52.5 -13.5q-28 0 -44 9t-26 20t-18 20t-22 9q-16 0 -18.5 -13.5t-2.5 -39.5h-78z" />
    <glyph glyph-name="uni1EAB" unicode="&#x1eab;" horiz-adv-x="480" 
d="M174 -10q-56 0 -89 25.5t-47 72.5t-14 112t14 113t47 74.5t89 26.5q41 0 66 -11.5t39 -26.5t19.5 -26.5l5.5 -11.5h2v76h144v-414h-122l-22 56h-2q1 0 -5 -10t-20.5 -23t-40 -23t-64.5 -10zM233 105q34 0 49.5 13.5t19.5 35.5t4 45q0 24 -4 45.5t-19.5 34.5t-49.5 13
t-49.5 -13.5t-19.5 -34.5t-4 -45t4 -45.5t19.5 -35t49.5 -13.5zM85 464v10l127 114h58l126 -114v-10h-120l-32 36h-6l-29 -36h-124zM85 617q0 12 0.5 33.5t7.5 44t26 38.5t56 16q28 0 44.5 -9t26.5 -20t19 -20t21 -9q15 0 17.5 14.5t2.5 39.5h78q0 -19 -1.5 -41.5
t-9.5 -43.5t-26.5 -34.5t-52.5 -13.5q-28 0 -44 9t-26 20t-18 20t-22 9q-16 0 -18.5 -13.5t-2.5 -39.5h-78z" />
    <glyph glyph-name="uni1EAC" unicode="&#x1eac;" horiz-adv-x="591" 
d="M18 0l162 563h229l168 -563h-149l-131 505l-129 -505h-150zM153 141l-5 106h295l-4 -106h-286zM297 -210q-42 0 -56.5 21.5t-14.5 49.5q0 27 14.5 48t56.5 21t55.5 -21t13.5 -48q0 -28 -13.5 -49.5t-55.5 -21.5zM140 617v10l127 114h58l126 -114v-10h-120l-32 36h-6
l-29 -36h-124z" />
    <glyph glyph-name="uni1EAD" unicode="&#x1ead;" horiz-adv-x="480" 
d="M174 -10q-56 0 -89 25.5t-47 72.5t-14 112t14 113t47 74.5t89 26.5q41 0 66 -11.5t39 -26.5t19.5 -26.5l5.5 -11.5h2v76h144v-414h-122l-22 56h-2q1 0 -5 -10t-20.5 -23t-40 -23t-64.5 -10zM233 105q34 0 49.5 13.5t19.5 35.5t4 45q0 24 -4 45.5t-19.5 34.5t-49.5 13
t-49.5 -13.5t-19.5 -34.5t-4 -45t4 -45.5t19.5 -35t49.5 -13.5zM241 -210q-42 0 -56.5 21.5t-14.5 49.5q0 27 14.5 48t56.5 21t55.5 -21t13.5 -48q0 -28 -13.5 -49.5t-55.5 -21.5zM84 468v10l127 114h58l126 -114v-10h-120l-32 36h-6l-29 -36h-124z" />
    <glyph glyph-name="uni1EAE" unicode="&#x1eae;" horiz-adv-x="591" 
d="M18 0l162 563h229l168 -563h-149l-131 505l-129 -505h-150zM153 141l-5 106h295l-4 -106h-286zM296 613q-70 0 -108.5 32t-38.5 87h97q0 -25 14 -35.5t36 -10.5q23 0 36 10t13 36h97q0 -55 -37.5 -87t-108.5 -32zM328 776h-62v17l39 97h115v-22z" />
    <glyph glyph-name="uni1EAF" unicode="&#x1eaf;" horiz-adv-x="480" 
d="M174 -10q-56 0 -89 25.5t-47 72.5t-14 112t14 113t47 74.5t89 26.5q41 0 66 -11.5t39 -26.5t19.5 -26.5l5.5 -11.5h2v76h144v-414h-122l-22 56h-2q1 0 -5 -10t-20.5 -23t-40 -23t-64.5 -10zM233 105q34 0 49.5 13.5t19.5 35.5t4 45q0 24 -4 45.5t-19.5 34.5t-49.5 13
t-49.5 -13.5t-19.5 -34.5t-4 -45t4 -45.5t19.5 -35t49.5 -13.5zM240 464q-70 0 -108.5 32t-38.5 87h97q0 -25 14 -35.5t36 -10.5q23 0 36 10t13 36h97q0 -55 -37.5 -87t-108.5 -32zM272 627h-62v17l39 97h115v-22z" />
    <glyph glyph-name="uni1EB0" unicode="&#x1eb0;" horiz-adv-x="591" 
d="M18 0l162 563h229l168 -563h-149l-131 505l-129 -505h-150zM153 141l-5 106h295l-4 -106h-286zM296 613q-70 0 -108.5 32t-38.5 87h97q0 -25 14 -35.5t36 -10.5q23 0 36 10t13 36h97q0 -55 -37.5 -87t-108.5 -32zM260 776l-92 92v22h115l39 -97v-17h-62z" />
    <glyph glyph-name="uni1EB1" unicode="&#x1eb1;" horiz-adv-x="480" 
d="M174 -10q-56 0 -89 25.5t-47 72.5t-14 112t14 113t47 74.5t89 26.5q41 0 66 -11.5t39 -26.5t19.5 -26.5l5.5 -11.5h2v76h144v-414h-122l-22 56h-2q1 0 -5 -10t-20.5 -23t-40 -23t-64.5 -10zM233 105q34 0 49.5 13.5t19.5 35.5t4 45q0 24 -4 45.5t-19.5 34.5t-49.5 13
t-49.5 -13.5t-19.5 -34.5t-4 -45t4 -45.5t19.5 -35t49.5 -13.5zM240 464q-70 0 -108.5 32t-38.5 87h97q0 -25 14 -35.5t36 -10.5q23 0 36 10t13 36h97q0 -55 -37.5 -87t-108.5 -32zM204 627l-92 92v22h115l39 -97v-17h-62z" />
    <glyph glyph-name="uni1EB2" unicode="&#x1eb2;" horiz-adv-x="591" 
d="M18 0l162 563h229l168 -563h-149l-131 505l-129 -505h-150zM153 141l-5 106h295l-4 -106h-286zM296 613q-70 0 -108.5 32t-38.5 87h97q0 -25 14 -35.5t36 -10.5q23 0 36 10t13 36h97q0 -55 -37.5 -87t-108.5 -32zM253 773v20q7 13 23 22t30.5 20t14.5 29q0 12 -9.5 17.5
t-22.5 5.5t-25.5 -6.5t-17.5 -18.5l-52 37q11 36 42 54t66 18q38 0 69.5 -22.5t31.5 -69.5q0 -33 -13 -50.5t-28.5 -29t-23.5 -26.5h-85z" />
    <glyph glyph-name="uni1EB3" unicode="&#x1eb3;" horiz-adv-x="480" 
d="M174 -10q-56 0 -89 25.5t-47 72.5t-14 112t14 113t47 74.5t89 26.5q41 0 66 -11.5t39 -26.5t19.5 -26.5l5.5 -11.5h2v76h144v-414h-122l-22 56h-2q1 0 -5 -10t-20.5 -23t-40 -23t-64.5 -10zM233 105q34 0 49.5 13.5t19.5 35.5t4 45q0 24 -4 45.5t-19.5 34.5t-49.5 13
t-49.5 -13.5t-19.5 -34.5t-4 -45t4 -45.5t19.5 -35t49.5 -13.5zM240 464q-70 0 -108.5 32t-38.5 87h97q0 -25 14 -35.5t36 -10.5q23 0 36 10t13 36h97q0 -55 -37.5 -87t-108.5 -32zM197 624v20q7 13 23 22t30.5 20t14.5 29q0 12 -9.5 17.5t-22.5 5.5t-25.5 -6.5t-17.5 -18.5
l-52 37q11 36 42 54t66 18q38 0 69.5 -22.5t31.5 -69.5q0 -33 -13 -50.5t-28.5 -29t-23.5 -26.5h-85z" />
    <glyph glyph-name="uni1EB4" unicode="&#x1eb4;" horiz-adv-x="591" 
d="M18 0l162 563h229l168 -563h-149l-131 505l-129 -505h-150zM153 141l-5 106h295l-4 -106h-286zM300 613q-70 0 -108.5 32t-38.5 87h97q0 -25 14 -35.5t36 -10.5q23 0 36 10t13 36h97q0 -55 -37.5 -87t-108.5 -32zM151 791q0 12 0.5 33.5t7.5 44t26 38.5t56 16
q28 0 44.5 -9t26.5 -20t19 -20t21 -9q15 0 17.5 14.5t2.5 39.5h78q0 -19 -1.5 -41.5t-9.5 -43.5t-26.5 -34.5t-52.5 -13.5q-28 0 -44 9t-26 20t-18 20t-22 9q-16 0 -18.5 -13.5t-2.5 -39.5h-78z" />
    <glyph glyph-name="uni1EB5" unicode="&#x1eb5;" horiz-adv-x="480" 
d="M174 -10q-56 0 -89 25.5t-47 72.5t-14 112t14 113t47 74.5t89 26.5q41 0 66 -11.5t39 -26.5t19.5 -26.5l5.5 -11.5h2v76h144v-414h-122l-22 56h-2q1 0 -5 -10t-20.5 -23t-40 -23t-64.5 -10zM233 105q34 0 49.5 13.5t19.5 35.5t4 45q0 24 -4 45.5t-19.5 34.5t-49.5 13
t-49.5 -13.5t-19.5 -34.5t-4 -45t4 -45.5t19.5 -35t49.5 -13.5zM244 464q-70 0 -108.5 32t-38.5 87h97q0 -25 14 -35.5t36 -10.5q23 0 36 10t13 36h97q0 -55 -37.5 -87t-108.5 -32zM95 642q0 12 0.5 33.5t7.5 44t26 38.5t56 16q28 0 44.5 -9t26.5 -20t19 -20t21 -9
q15 0 17.5 14.5t2.5 39.5h78q0 -19 -1.5 -41.5t-9.5 -43.5t-26.5 -34.5t-52.5 -13.5q-28 0 -44 9t-26 20t-18 20t-22 9q-16 0 -18.5 -13.5t-2.5 -39.5h-78z" />
    <glyph glyph-name="uni1EB6" unicode="&#x1eb6;" horiz-adv-x="591" 
d="M18 0l162 563h229l168 -563h-149l-131 505l-129 -505h-150zM153 141l-5 106h295l-4 -106h-286zM297 -210q-42 0 -56.5 21.5t-14.5 49.5q0 27 14.5 48t56.5 21t55.5 -21t13.5 -48q0 -28 -13.5 -49.5t-55.5 -21.5zM296 613q-70 0 -108.5 32t-38.5 87h97q0 -25 14 -35.5
t36 -10.5q23 0 36 10t13 36h97q0 -55 -37.5 -87t-108.5 -32z" />
    <glyph glyph-name="uni1EB7" unicode="&#x1eb7;" horiz-adv-x="480" 
d="M174 -10q-56 0 -89 25.5t-47 72.5t-14 112t14 113t47 74.5t89 26.5q41 0 66 -11.5t39 -26.5t19.5 -26.5l5.5 -11.5h2v76h144v-414h-122l-22 56h-2q1 0 -5 -10t-20.5 -23t-40 -23t-64.5 -10zM233 105q34 0 49.5 13.5t19.5 35.5t4 45q0 24 -4 45.5t-19.5 34.5t-49.5 13
t-49.5 -13.5t-19.5 -34.5t-4 -45t4 -45.5t19.5 -35t49.5 -13.5zM241 -210q-42 0 -56.5 21.5t-14.5 49.5q0 27 14.5 48t56.5 21t55.5 -21t13.5 -48q0 -28 -13.5 -49.5t-55.5 -21.5zM240 464q-70 0 -108.5 32t-38.5 87h97q0 -25 14 -35.5t36 -10.5q23 0 36 10t13 36h97
q0 -55 -37.5 -87t-108.5 -32z" />
    <glyph glyph-name="uni1EB8" unicode="&#x1eb8;" horiz-adv-x="523" 
d="M50 0v563h426v-119h-289v-103h215v-112h-215v-118h300v-111h-437zM263 -210q-42 0 -56.5 21.5t-14.5 49.5q0 27 14.5 48t56.5 21t55.5 -21t13.5 -48q0 -28 -13.5 -49.5t-55.5 -21.5z" />
    <glyph glyph-name="uni1EB9" unicode="&#x1eb9;" 
d="M235 -10q-75 0 -121 30t-67.5 77.5t-23.5 99.5q-2 68 24 117.5t73.5 76t109.5 26.5q59 0 105.5 -24.5t73 -69.5t26.5 -108v-10.5v-15.5h-280q0 -44 21.5 -64t55.5 -20q29 0 46.5 13.5t20.5 34.5h135q-3 -44 -26 -81.5t-66 -59.5t-107 -22zM157 245h138l-0.5 9t-6.5 21
t-20 21t-41 9t-42 -9t-20.5 -21t-6.5 -21zM238 -210q-42 0 -56.5 21.5t-14.5 49.5q0 27 14.5 48t56.5 21t55.5 -21t13.5 -48q0 -28 -13.5 -49.5t-55.5 -21.5z" />
    <glyph glyph-name="uni1EBA" unicode="&#x1eba;" horiz-adv-x="523" 
d="M50 0v563h426v-119h-289v-103h215v-112h-215v-118h300v-111h-437zM219 607v20q7 13 23 22t30.5 20t14.5 29q0 12 -9.5 17.5t-22.5 5.5t-25.5 -6.5t-17.5 -18.5l-52 37q11 36 42 54t66 18q38 0 69.5 -22.5t31.5 -69.5q0 -33 -13 -50.5t-28.5 -29t-23.5 -26.5h-85z" />
    <glyph glyph-name="uni1EBB" unicode="&#x1ebb;" 
d="M235 -10q-75 0 -121 30t-67.5 77.5t-23.5 99.5q-2 68 24 117.5t73.5 76t109.5 26.5q59 0 105.5 -24.5t73 -69.5t26.5 -108v-10.5v-15.5h-280q0 -44 21.5 -64t55.5 -20q29 0 46.5 13.5t20.5 34.5h135q-3 -44 -26 -81.5t-66 -59.5t-107 -22zM157 245h138l-0.5 9t-6.5 21
t-20 21t-41 9t-42 -9t-20.5 -21t-6.5 -21zM194 458v20q7 13 23 22t30.5 20t14.5 29q0 12 -9.5 17.5t-22.5 5.5t-25.5 -6.5t-17.5 -18.5l-52 37q11 36 42 54t66 18q38 0 69.5 -22.5t31.5 -69.5q0 -33 -13 -50.5t-28.5 -29t-23.5 -26.5h-85z" />
    <glyph glyph-name="uni1EBC" unicode="&#x1ebc;" horiz-adv-x="523" 
d="M50 0v563h426v-119h-289v-103h215v-112h-215v-118h300v-111h-437zM113 625q0 12 0.5 33.5t7.5 44t26 38.5t56 16q28 0 44.5 -9t26.5 -20t19 -20t21 -9q15 0 17.5 14.5t2.5 39.5h78q0 -19 -1.5 -41.5t-9.5 -43.5t-26.5 -34.5t-52.5 -13.5q-28 0 -44 9t-26 20t-18 20t-22 9
q-16 0 -18.5 -13.5t-2.5 -39.5h-78z" />
    <glyph glyph-name="uni1EBD" unicode="&#x1ebd;" 
d="M235 -10q-75 0 -121 30t-67.5 77.5t-23.5 99.5q-2 68 24 117.5t73.5 76t109.5 26.5q59 0 105.5 -24.5t73 -69.5t26.5 -108v-10.5v-15.5h-280q0 -44 21.5 -64t55.5 -20q29 0 46.5 13.5t20.5 34.5h135q-3 -44 -26 -81.5t-66 -59.5t-107 -22zM157 245h138l-0.5 9t-6.5 21
t-20 21t-41 9t-42 -9t-20.5 -21t-6.5 -21zM88 476q0 12 0.5 33.5t7.5 44t26 38.5t56 16q28 0 44.5 -9t26.5 -20t19 -20t21 -9q15 0 17.5 14.5t2.5 39.5h78q0 -19 -1.5 -41.5t-9.5 -43.5t-26.5 -34.5t-52.5 -13.5q-28 0 -44 9t-26 20t-18 20t-22 9q-16 0 -18.5 -13.5
t-2.5 -39.5h-78z" />
    <glyph glyph-name="uni1EBE" unicode="&#x1ebe;" horiz-adv-x="523" 
d="M50 0v563h426v-119h-289v-103h215v-112h-215v-118h300v-111h-437zM109 617v10l127 114h58l126 -114v-10h-120l-32 36h-6l-29 -36h-124zM419 713h-62v17l39 97h115v-22z" />
    <glyph glyph-name="uni1EBF" unicode="&#x1ebf;" 
d="M235 -10q-75 0 -121 30t-67.5 77.5t-23.5 99.5q-2 68 24 117.5t73.5 76t109.5 26.5q59 0 105.5 -24.5t73 -69.5t26.5 -108v-10.5v-15.5h-280q0 -44 21.5 -64t55.5 -20q29 0 46.5 13.5t20.5 34.5h135q-3 -44 -26 -81.5t-66 -59.5t-107 -22zM157 245h138l-0.5 9t-6.5 21
t-20 21t-41 9t-42 -9t-20.5 -21t-6.5 -21zM84 468v10l127 114h58l126 -114v-10h-120l-32 36h-6l-29 -36h-124zM394 564h-62v17l39 97h115v-22z" />
    <glyph glyph-name="uni1EC0" unicode="&#x1ec0;" horiz-adv-x="523" 
d="M50 0v563h426v-119h-289v-103h215v-112h-215v-118h300v-111h-437zM416 712l-92 92v22h115l39 -97v-17h-62zM106 613v10l127 114h58l126 -114v-10h-120l-32 36h-6l-29 -36h-124z" />
    <glyph glyph-name="uni1EC1" unicode="&#x1ec1;" 
d="M235 -10q-75 0 -121 30t-67.5 77.5t-23.5 99.5q-2 68 24 117.5t73.5 76t109.5 26.5q59 0 105.5 -24.5t73 -69.5t26.5 -108v-10.5v-15.5h-280q0 -44 21.5 -64t55.5 -20q29 0 46.5 13.5t20.5 34.5h135q-3 -44 -26 -81.5t-66 -59.5t-107 -22zM157 245h138l-0.5 9t-6.5 21
t-20 21t-41 9t-42 -9t-20.5 -21t-6.5 -21zM391 563l-92 92v22h115l39 -97v-17h-62zM81 464v10l127 114h58l126 -114v-10h-120l-32 36h-6l-29 -36h-124z" />
    <glyph glyph-name="uni1EC2" unicode="&#x1ec2;" horiz-adv-x="523" 
d="M50 0v563h426v-119h-289v-103h215v-112h-215v-118h300v-111h-437zM106 613v10l127 114h58l126 -114v-10h-120l-32 36h-6l-29 -36h-124zM348 699v20q7 13 23 22t30.5 20t14.5 29q0 12 -9.5 17.5t-22.5 5.5t-25.5 -6.5t-17.5 -18.5l-52 37q11 36 42 54t66 18
q38 0 69.5 -22.5t31.5 -69.5q0 -33 -13 -50.5t-28.5 -29t-23.5 -26.5h-85z" />
    <glyph glyph-name="uni1EC3" unicode="&#x1ec3;" 
d="M235 -10q-75 0 -121 30t-67.5 77.5t-23.5 99.5q-2 68 24 117.5t73.5 76t109.5 26.5q59 0 105.5 -24.5t73 -69.5t26.5 -108v-10.5v-15.5h-280q0 -44 21.5 -64t55.5 -20q29 0 46.5 13.5t20.5 34.5h135q-3 -44 -26 -81.5t-66 -59.5t-107 -22zM157 245h138l-0.5 9t-6.5 21
t-20 21t-41 9t-42 -9t-20.5 -21t-6.5 -21zM81 464v10l127 114h58l126 -114v-10h-120l-32 36h-6l-29 -36h-124zM323 550v20q7 13 23 22t30.5 20t14.5 29q0 12 -9.5 17.5t-22.5 5.5t-25.5 -6.5t-17.5 -18.5l-52 37q11 36 42 54t66 18q38 0 69.5 -22.5t31.5 -69.5
q0 -33 -13 -50.5t-28.5 -29t-23.5 -26.5h-85z" />
    <glyph glyph-name="uni1EC4" unicode="&#x1ec4;" horiz-adv-x="523" 
d="M50 0v563h426v-119h-289v-103h215v-112h-215v-118h300v-111h-437zM107 613v10l127 114h58l126 -114v-10h-120l-32 36h-6l-29 -36h-124zM107 766q0 12 0.5 33.5t7.5 44t26 38.5t56 16q28 0 44.5 -9t26.5 -20t19 -20t21 -9q15 0 17.5 14.5t2.5 39.5h78q0 -19 -1.5 -41.5
t-9.5 -43.5t-26.5 -34.5t-52.5 -13.5q-28 0 -44 9t-26 20t-18 20t-22 9q-16 0 -18.5 -13.5t-2.5 -39.5h-78z" />
    <glyph glyph-name="uni1EC5" unicode="&#x1ec5;" 
d="M235 -10q-75 0 -121 30t-67.5 77.5t-23.5 99.5q-2 68 24 117.5t73.5 76t109.5 26.5q59 0 105.5 -24.5t73 -69.5t26.5 -108v-10.5v-15.5h-280q0 -44 21.5 -64t55.5 -20q29 0 46.5 13.5t20.5 34.5h135q-3 -44 -26 -81.5t-66 -59.5t-107 -22zM157 245h138l-0.5 9t-6.5 21
t-20 21t-41 9t-42 -9t-20.5 -21t-6.5 -21zM82 464v10l127 114h58l126 -114v-10h-120l-32 36h-6l-29 -36h-124zM82 617q0 12 0.5 33.5t7.5 44t26 38.5t56 16q28 0 44.5 -9t26.5 -20t19 -20t21 -9q15 0 17.5 14.5t2.5 39.5h78q0 -19 -1.5 -41.5t-9.5 -43.5t-26.5 -34.5
t-52.5 -13.5q-28 0 -44 9t-26 20t-18 20t-22 9q-16 0 -18.5 -13.5t-2.5 -39.5h-78z" />
    <glyph glyph-name="uni1EC6" unicode="&#x1ec6;" horiz-adv-x="523" 
d="M50 0v563h426v-119h-289v-103h215v-112h-215v-118h300v-111h-437zM263 -210q-42 0 -56.5 21.5t-14.5 49.5q0 27 14.5 48t56.5 21t55.5 -21t13.5 -48q0 -28 -13.5 -49.5t-55.5 -21.5zM106 617v10l127 114h58l126 -114v-10h-120l-32 36h-6l-29 -36h-124z" />
    <glyph glyph-name="uni1EC7" unicode="&#x1ec7;" 
d="M235 -10q-75 0 -121 30t-67.5 77.5t-23.5 99.5q-2 68 24 117.5t73.5 76t109.5 26.5q59 0 105.5 -24.5t73 -69.5t26.5 -108v-10.5v-15.5h-280q0 -44 21.5 -64t55.5 -20q29 0 46.5 13.5t20.5 34.5h135q-3 -44 -26 -81.5t-66 -59.5t-107 -22zM157 245h138l-0.5 9t-6.5 21
t-20 21t-41 9t-42 -9t-20.5 -21t-6.5 -21zM238 -210q-42 0 -56.5 21.5t-14.5 49.5q0 27 14.5 48t56.5 21t55.5 -21t13.5 -48q0 -28 -13.5 -49.5t-55.5 -21.5zM81 468v10l127 114h58l126 -114v-10h-120l-32 36h-6l-29 -36h-124z" />
    <glyph glyph-name="uni1EC8" unicode="&#x1ec8;" horiz-adv-x="415" 
d="M136 18v527h139v-527h-139zM63 0v119h284v-119h-284zM63 444v119h284v-119h-284zM163 607v20q7 13 23 22t30.5 20t14.5 29q0 12 -9.5 17.5t-22.5 5.5t-25.5 -6.5t-17.5 -18.5l-52 37q11 36 42 54t66 18q38 0 69.5 -22.5t31.5 -69.5q0 -33 -13 -50.5t-28.5 -29
t-23.5 -26.5h-85z" />
    <glyph glyph-name="uni1EC9" unicode="&#x1ec9;" horiz-adv-x="230" 
d="M45 0v414h140v-414h-140zM72 458v20q7 13 23 22t30.5 20t14.5 29q0 12 -9.5 17.5t-22.5 5.5t-25.5 -6.5t-17.5 -18.5l-52 37q11 36 42 54t66 18q38 0 69.5 -22.5t31.5 -69.5q0 -33 -13 -50.5t-28.5 -29t-23.5 -26.5h-85z" />
    <glyph glyph-name="uni1ECA" unicode="&#x1eca;" horiz-adv-x="415" 
d="M136 18v527h139v-527h-139zM63 0v119h284v-119h-284zM63 444v119h284v-119h-284zM209 -210q-42 0 -56.5 21.5t-14.5 49.5q0 27 14.5 48t56.5 21t55.5 -21t13.5 -48q0 -28 -13.5 -49.5t-55.5 -21.5z" />
    <glyph glyph-name="uni1ECB" unicode="&#x1ecb;" horiz-adv-x="230" 
d="M46 0v414h140v-414h-140zM116 459q-42 0 -56.5 21.5t-14.5 49.5q0 27 14.5 48t56.5 21t55.5 -21t13.5 -48q0 -28 -13.5 -49.5t-55.5 -21.5zM120 -210q-42 0 -56.5 21.5t-14.5 49.5q0 27 14.5 48t56.5 21t55.5 -21t13.5 -48q0 -28 -13.5 -49.5t-55.5 -21.5z" />
    <glyph glyph-name="uni1ECC" unicode="&#x1ecc;" horiz-adv-x="619" 
d="M302 -14q-140 0 -214 79.5t-74 214.5q0 89 32 154.5t96 102t160 36.5q140 0 213 -79.5t73 -213.5q0 -87 -32.5 -153.5t-96 -103.5t-157.5 -37zM300 121q51 0 84.5 21.5t50 58t16.5 79.5q0 44 -16.5 81t-50 59t-84.5 22q-73 0 -111.5 -46t-38.5 -116q0 -42 16.5 -78.5
t49.5 -58.5t84 -22zM311 -210q-42 0 -56.5 21.5t-14.5 49.5q0 27 14.5 48t56.5 21t55.5 -21t13.5 -48q0 -28 -13.5 -49.5t-55.5 -21.5z" />
    <glyph glyph-name="uni1ECD" unicode="&#x1ecd;" horiz-adv-x="487" 
d="M239 -10q-73 0 -122 27.5t-73 75.5t-24 109q0 62 24 110t73 75.5t122 27.5q107 0 162.5 -58.5t55.5 -154.5q0 -60 -23.5 -108t-71.5 -76t-123 -28zM239 106q37 0 55 15t23.5 38.5t5.5 47.5q0 25 -5.5 48t-23.5 38.5t-55 15.5t-55.5 -15.5t-24 -38.5t-5.5 -48
q0 -24 5.5 -47.5t24 -38.5t55.5 -15zM245 -210q-42 0 -56.5 21.5t-14.5 49.5q0 27 14.5 48t56.5 21t55.5 -21t13.5 -48q0 -28 -13.5 -49.5t-55.5 -21.5z" />
    <glyph glyph-name="uni1ECE" unicode="&#x1ece;" horiz-adv-x="619" 
d="M302 -14q-140 0 -214 79.5t-74 214.5q0 89 32 154.5t96 102t160 36.5q140 0 213 -79.5t73 -213.5q0 -87 -32.5 -153.5t-96 -103.5t-157.5 -37zM300 121q51 0 84.5 21.5t50 58t16.5 79.5q0 44 -16.5 81t-50 59t-84.5 22q-73 0 -111.5 -46t-38.5 -116q0 -42 16.5 -78.5
t49.5 -58.5t84 -22zM267 607v20q7 13 23 22t30.5 20t14.5 29q0 12 -9.5 17.5t-22.5 5.5t-25.5 -6.5t-17.5 -18.5l-52 37q11 36 42 54t66 18q38 0 69.5 -22.5t31.5 -69.5q0 -33 -13 -50.5t-28.5 -29t-23.5 -26.5h-85z" />
    <glyph glyph-name="uni1ECF" unicode="&#x1ecf;" horiz-adv-x="487" 
d="M239 -10q-73 0 -122 27.5t-73 75.5t-24 109q0 62 24 110t73 75.5t122 27.5q107 0 162.5 -58.5t55.5 -154.5q0 -60 -23.5 -108t-71.5 -76t-123 -28zM239 106q37 0 55 15t23.5 38.5t5.5 47.5q0 25 -5.5 48t-23.5 38.5t-55 15.5t-55.5 -15.5t-24 -38.5t-5.5 -48
q0 -24 5.5 -47.5t24 -38.5t55.5 -15zM201 458v20q7 13 23 22t30.5 20t14.5 29q0 12 -9.5 17.5t-22.5 5.5t-25.5 -6.5t-17.5 -18.5l-52 37q11 36 42 54t66 18q38 0 69.5 -22.5t31.5 -69.5q0 -33 -13 -50.5t-28.5 -29t-23.5 -26.5h-85z" />
    <glyph glyph-name="uni1ED0" unicode="&#x1ed0;" horiz-adv-x="619" 
d="M302 -14q-140 0 -214 79.5t-74 214.5q0 89 32 154.5t96 102t160 36.5q140 0 213 -79.5t73 -213.5q0 -87 -32.5 -153.5t-96 -103.5t-157.5 -37zM300 121q51 0 84.5 21.5t50 58t16.5 79.5q0 44 -16.5 81t-50 59t-84.5 22q-73 0 -111.5 -46t-38.5 -116q0 -42 16.5 -78.5
t49.5 -58.5t84 -22zM157 617v10l127 114h58l126 -114v-10h-120l-32 36h-6l-29 -36h-124zM467 713h-62v17l39 97h115v-22z" />
    <glyph glyph-name="uni1ED1" unicode="&#x1ed1;" horiz-adv-x="487" 
d="M239 -10q-73 0 -122 27.5t-73 75.5t-24 109q0 62 24 110t73 75.5t122 27.5q107 0 162.5 -58.5t55.5 -154.5q0 -60 -23.5 -108t-71.5 -76t-123 -28zM239 106q37 0 55 15t23.5 38.5t5.5 47.5q0 25 -5.5 48t-23.5 38.5t-55 15.5t-55.5 -15.5t-24 -38.5t-5.5 -48
q0 -24 5.5 -47.5t24 -38.5t55.5 -15zM91 468v10l127 114h58l126 -114v-10h-120l-32 36h-6l-29 -36h-124zM401 564h-62v17l39 97h115v-22z" />
    <glyph glyph-name="uni1ED2" unicode="&#x1ed2;" horiz-adv-x="619" 
d="M302 -14q-140 0 -214 79.5t-74 214.5q0 89 32 154.5t96 102t160 36.5q140 0 213 -79.5t73 -213.5q0 -87 -32.5 -153.5t-96 -103.5t-157.5 -37zM300 121q51 0 84.5 21.5t50 58t16.5 79.5q0 44 -16.5 81t-50 59t-84.5 22q-73 0 -111.5 -46t-38.5 -116q0 -42 16.5 -78.5
t49.5 -58.5t84 -22zM464 712l-92 92v22h115l39 -97v-17h-62zM154 613v10l127 114h58l126 -114v-10h-120l-32 36h-6l-29 -36h-124z" />
    <glyph glyph-name="uni1ED3" unicode="&#x1ed3;" horiz-adv-x="487" 
d="M239 -10q-73 0 -122 27.5t-73 75.5t-24 109q0 62 24 110t73 75.5t122 27.5q107 0 162.5 -58.5t55.5 -154.5q0 -60 -23.5 -108t-71.5 -76t-123 -28zM239 106q37 0 55 15t23.5 38.5t5.5 47.5q0 25 -5.5 48t-23.5 38.5t-55 15.5t-55.5 -15.5t-24 -38.5t-5.5 -48
q0 -24 5.5 -47.5t24 -38.5t55.5 -15zM398 563l-92 92v22h115l39 -97v-17h-62zM88 464v10l127 114h58l126 -114v-10h-120l-32 36h-6l-29 -36h-124z" />
    <glyph glyph-name="uni1ED4" unicode="&#x1ed4;" horiz-adv-x="619" 
d="M302 -14q-140 0 -214 79.5t-74 214.5q0 89 32 154.5t96 102t160 36.5q140 0 213 -79.5t73 -213.5q0 -87 -32.5 -153.5t-96 -103.5t-157.5 -37zM300 121q51 0 84.5 21.5t50 58t16.5 79.5q0 44 -16.5 81t-50 59t-84.5 22q-73 0 -111.5 -46t-38.5 -116q0 -42 16.5 -78.5
t49.5 -58.5t84 -22zM154 613v10l127 114h58l126 -114v-10h-120l-32 36h-6l-29 -36h-124zM396 699v20q7 13 23 22t30.5 20t14.5 29q0 12 -9.5 17.5t-22.5 5.5t-25.5 -6.5t-17.5 -18.5l-52 37q11 36 42 54t66 18q38 0 69.5 -22.5t31.5 -69.5q0 -33 -13 -50.5t-28.5 -29
t-23.5 -26.5h-85z" />
    <glyph glyph-name="uni1ED5" unicode="&#x1ed5;" horiz-adv-x="487" 
d="M239 -10q-73 0 -122 27.5t-73 75.5t-24 109q0 62 24 110t73 75.5t122 27.5q107 0 162.5 -58.5t55.5 -154.5q0 -60 -23.5 -108t-71.5 -76t-123 -28zM239 106q37 0 55 15t23.5 38.5t5.5 47.5q0 25 -5.5 48t-23.5 38.5t-55 15.5t-55.5 -15.5t-24 -38.5t-5.5 -48
q0 -24 5.5 -47.5t24 -38.5t55.5 -15zM88 464v10l127 114h58l126 -114v-10h-120l-32 36h-6l-29 -36h-124zM330 550v20q7 13 23 22t30.5 20t14.5 29q0 12 -9.5 17.5t-22.5 5.5t-25.5 -6.5t-17.5 -18.5l-52 37q11 36 42 54t66 18q38 0 69.5 -22.5t31.5 -69.5q0 -33 -13 -50.5
t-28.5 -29t-23.5 -26.5h-85z" />
    <glyph glyph-name="uni1ED6" unicode="&#x1ed6;" horiz-adv-x="619" 
d="M302 -14q-140 0 -214 79.5t-74 214.5q0 89 32 154.5t96 102t160 36.5q140 0 213 -79.5t73 -213.5q0 -87 -32.5 -153.5t-96 -103.5t-157.5 -37zM300 121q51 0 84.5 21.5t50 58t16.5 79.5q0 44 -16.5 81t-50 59t-84.5 22q-73 0 -111.5 -46t-38.5 -116q0 -42 16.5 -78.5
t49.5 -58.5t84 -22zM155 613v10l127 114h58l126 -114v-10h-120l-32 36h-6l-29 -36h-124zM155 766q0 12 0.5 33.5t7.5 44t26 38.5t56 16q28 0 44.5 -9t26.5 -20t19 -20t21 -9q15 0 17.5 14.5t2.5 39.5h78q0 -19 -1.5 -41.5t-9.5 -43.5t-26.5 -34.5t-52.5 -13.5q-28 0 -44 9
t-26 20t-18 20t-22 9q-16 0 -18.5 -13.5t-2.5 -39.5h-78z" />
    <glyph glyph-name="uni1ED7" unicode="&#x1ed7;" horiz-adv-x="487" 
d="M239 -10q-73 0 -122 27.5t-73 75.5t-24 109q0 62 24 110t73 75.5t122 27.5q107 0 162.5 -58.5t55.5 -154.5q0 -60 -23.5 -108t-71.5 -76t-123 -28zM239 106q37 0 55 15t23.5 38.5t5.5 47.5q0 25 -5.5 48t-23.5 38.5t-55 15.5t-55.5 -15.5t-24 -38.5t-5.5 -48
q0 -24 5.5 -47.5t24 -38.5t55.5 -15zM89 464v10l127 114h58l126 -114v-10h-120l-32 36h-6l-29 -36h-124zM89 617q0 12 0.5 33.5t7.5 44t26 38.5t56 16q28 0 44.5 -9t26.5 -20t19 -20t21 -9q15 0 17.5 14.5t2.5 39.5h78q0 -19 -1.5 -41.5t-9.5 -43.5t-26.5 -34.5t-52.5 -13.5
q-28 0 -44 9t-26 20t-18 20t-22 9q-16 0 -18.5 -13.5t-2.5 -39.5h-78z" />
    <glyph glyph-name="uni1ED8" unicode="&#x1ed8;" horiz-adv-x="619" 
d="M302 -14q-140 0 -214 79.5t-74 214.5q0 89 32 154.5t96 102t160 36.5q140 0 213 -79.5t73 -213.5q0 -87 -32.5 -153.5t-96 -103.5t-157.5 -37zM300 121q51 0 84.5 21.5t50 58t16.5 79.5q0 44 -16.5 81t-50 59t-84.5 22q-73 0 -111.5 -46t-38.5 -116q0 -42 16.5 -78.5
t49.5 -58.5t84 -22zM311 -210q-42 0 -56.5 21.5t-14.5 49.5q0 27 14.5 48t56.5 21t55.5 -21t13.5 -48q0 -28 -13.5 -49.5t-55.5 -21.5zM154 617v10l127 114h58l126 -114v-10h-120l-32 36h-6l-29 -36h-124z" />
    <glyph glyph-name="uni1ED9" unicode="&#x1ed9;" horiz-adv-x="487" 
d="M239 -10q-73 0 -122 27.5t-73 75.5t-24 109q0 62 24 110t73 75.5t122 27.5q107 0 162.5 -58.5t55.5 -154.5q0 -60 -23.5 -108t-71.5 -76t-123 -28zM239 106q37 0 55 15t23.5 38.5t5.5 47.5q0 25 -5.5 48t-23.5 38.5t-55 15.5t-55.5 -15.5t-24 -38.5t-5.5 -48
q0 -24 5.5 -47.5t24 -38.5t55.5 -15zM245 -210q-42 0 -56.5 21.5t-14.5 49.5q0 27 14.5 48t56.5 21t55.5 -21t13.5 -48q0 -28 -13.5 -49.5t-55.5 -21.5zM88 468v10l127 114h58l126 -114v-10h-120l-32 36h-6l-29 -36h-124z" />
    <glyph glyph-name="uni1EDA" unicode="&#x1eda;" horiz-adv-x="619" 
d="M302 -14q-140 0 -214 79.5t-74 214.5q0 89 32 154.5t96 102t160 36.5q140 0 213 -79.5t73 -213.5q0 -87 -32.5 -153.5t-96 -103.5t-157.5 -37zM300 121q51 0 84.5 21.5t50 58t16.5 79.5q0 44 -16.5 81t-50 59t-84.5 22q-73 0 -111.5 -46t-38.5 -116q0 -42 16.5 -78.5
t49.5 -58.5t84 -22zM376 484v79h54q17 0 23 4t7 16.5t1 39.5h86q0 -52 -10.5 -82.5t-39 -43.5t-82.5 -13h-39zM342 610h-62v17l39 97h115v-22z" />
    <glyph glyph-name="uni1EDB" unicode="&#x1edb;" horiz-adv-x="487" 
d="M239 -10q-73 0 -122 27.5t-73 75.5t-24 109q0 62 24 110t73 75.5t122 27.5q107 0 162.5 -58.5t55.5 -154.5q0 -60 -23.5 -108t-71.5 -76t-123 -28zM239 106q37 0 55 15t23.5 38.5t5.5 47.5q0 25 -5.5 48t-23.5 38.5t-55 15.5t-55.5 -15.5t-24 -38.5t-5.5 -48
q0 -24 5.5 -47.5t24 -38.5t55.5 -15zM267 335v79h54q17 0 23 4t7 16.5t1 39.5h86q0 -52 -10.5 -82.5t-39 -43.5t-82.5 -13h-39zM276 461h-62v17l39 97h115v-22z" />
    <glyph glyph-name="uni1EDC" unicode="&#x1edc;" horiz-adv-x="619" 
d="M302 -14q-140 0 -214 79.5t-74 214.5q0 89 32 154.5t96 102t160 36.5q140 0 213 -79.5t73 -213.5q0 -87 -32.5 -153.5t-96 -103.5t-157.5 -37zM300 121q51 0 84.5 21.5t50 58t16.5 79.5q0 44 -16.5 81t-50 59t-84.5 22q-73 0 -111.5 -46t-38.5 -116q0 -42 16.5 -78.5
t49.5 -58.5t84 -22zM376 484v79h54q17 0 23 4t7 16.5t1 39.5h86q0 -52 -10.5 -82.5t-39 -43.5t-82.5 -13h-39zM274 610l-92 92v22h115l39 -97v-17h-62z" />
    <glyph glyph-name="uni1EDD" unicode="&#x1edd;" horiz-adv-x="487" 
d="M239 -10q-73 0 -122 27.5t-73 75.5t-24 109q0 62 24 110t73 75.5t122 27.5q107 0 162.5 -58.5t55.5 -154.5q0 -60 -23.5 -108t-71.5 -76t-123 -28zM239 106q37 0 55 15t23.5 38.5t5.5 47.5q0 25 -5.5 48t-23.5 38.5t-55 15.5t-55.5 -15.5t-24 -38.5t-5.5 -48
q0 -24 5.5 -47.5t24 -38.5t55.5 -15zM267 335v79h54q17 0 23 4t7 16.5t1 39.5h86q0 -52 -10.5 -82.5t-39 -43.5t-82.5 -13h-39zM208 461l-92 92v22h115l39 -97v-17h-62z" />
    <glyph glyph-name="uni1EDE" unicode="&#x1ede;" horiz-adv-x="619" 
d="M302 -14q-140 0 -214 79.5t-74 214.5q0 89 32 154.5t96 102t160 36.5q140 0 213 -79.5t73 -213.5q0 -87 -32.5 -153.5t-96 -103.5t-157.5 -37zM300 121q51 0 84.5 21.5t50 58t16.5 79.5q0 44 -16.5 81t-50 59t-84.5 22q-73 0 -111.5 -46t-38.5 -116q0 -42 16.5 -78.5
t49.5 -58.5t84 -22zM376 484v79h54q17 0 23 4t7 16.5t1 39.5h86q0 -52 -10.5 -82.5t-39 -43.5t-82.5 -13h-39zM267 607v20q7 13 23 22t30.5 20t14.5 29q0 12 -9.5 17.5t-22.5 5.5t-25.5 -6.5t-17.5 -18.5l-52 37q11 36 42 54t66 18q38 0 69.5 -22.5t31.5 -69.5
q0 -33 -13 -50.5t-28.5 -29t-23.5 -26.5h-85z" />
    <glyph glyph-name="uni1EDF" unicode="&#x1edf;" horiz-adv-x="487" 
d="M239 -10q-73 0 -122 27.5t-73 75.5t-24 109q0 62 24 110t73 75.5t122 27.5q107 0 162.5 -58.5t55.5 -154.5q0 -60 -23.5 -108t-71.5 -76t-123 -28zM239 106q37 0 55 15t23.5 38.5t5.5 47.5q0 25 -5.5 48t-23.5 38.5t-55 15.5t-55.5 -15.5t-24 -38.5t-5.5 -48
q0 -24 5.5 -47.5t24 -38.5t55.5 -15zM267 335v79h54q17 0 23 4t7 16.5t1 39.5h86q0 -52 -10.5 -82.5t-39 -43.5t-82.5 -13h-39zM201 458v20q7 13 23 22t30.5 20t14.5 29q0 12 -9.5 17.5t-22.5 5.5t-25.5 -6.5t-17.5 -18.5l-52 37q11 36 42 54t66 18q38 0 69.5 -22.5
t31.5 -69.5q0 -33 -13 -50.5t-28.5 -29t-23.5 -26.5h-85z" />
    <glyph glyph-name="uni1EE0" unicode="&#x1ee0;" horiz-adv-x="619" 
d="M302 -14q-140 0 -214 79.5t-74 214.5q0 89 32 154.5t96 102t160 36.5q140 0 213 -79.5t73 -213.5q0 -87 -32.5 -153.5t-96 -103.5t-157.5 -37zM300 121q51 0 84.5 21.5t50 58t16.5 79.5q0 44 -16.5 81t-50 59t-84.5 22q-73 0 -111.5 -46t-38.5 -116q0 -42 16.5 -78.5
t49.5 -58.5t84 -22zM376 484v79h54q17 0 23 4t7 16.5t1 39.5h86q0 -52 -10.5 -82.5t-39 -43.5t-82.5 -13h-39zM161 625q0 12 0.5 33.5t7.5 44t26 38.5t56 16q28 0 44.5 -9t26.5 -20t19 -20t21 -9q15 0 17.5 14.5t2.5 39.5h78q0 -19 -1.5 -41.5t-9.5 -43.5t-26.5 -34.5
t-52.5 -13.5q-28 0 -44 9t-26 20t-18 20t-22 9q-16 0 -18.5 -13.5t-2.5 -39.5h-78z" />
    <glyph glyph-name="uni1EE1" unicode="&#x1ee1;" horiz-adv-x="487" 
d="M239 -10q-73 0 -122 27.5t-73 75.5t-24 109q0 62 24 110t73 75.5t122 27.5q107 0 162.5 -58.5t55.5 -154.5q0 -60 -23.5 -108t-71.5 -76t-123 -28zM239 106q37 0 55 15t23.5 38.5t5.5 47.5q0 25 -5.5 48t-23.5 38.5t-55 15.5t-55.5 -15.5t-24 -38.5t-5.5 -48
q0 -24 5.5 -47.5t24 -38.5t55.5 -15zM267 335v79h54q17 0 23 4t7 16.5t1 39.5h86q0 -52 -10.5 -82.5t-39 -43.5t-82.5 -13h-39zM95 476q0 12 0.5 33.5t7.5 44t26 38.5t56 16q28 0 44.5 -9t26.5 -20t19 -20t21 -9q15 0 17.5 14.5t2.5 39.5h78q0 -19 -1.5 -41.5t-9.5 -43.5
t-26.5 -34.5t-52.5 -13.5q-28 0 -44 9t-26 20t-18 20t-22 9q-16 0 -18.5 -13.5t-2.5 -39.5h-78z" />
    <glyph glyph-name="uni1EE2" unicode="&#x1ee2;" horiz-adv-x="619" 
d="M302 -14q-140 0 -214 79.5t-74 214.5q0 89 32 154.5t96 102t160 36.5q140 0 213 -79.5t73 -213.5q0 -87 -32.5 -153.5t-96 -103.5t-157.5 -37zM300 121q51 0 84.5 21.5t50 58t16.5 79.5q0 44 -16.5 81t-50 59t-84.5 22q-73 0 -111.5 -46t-38.5 -116q0 -42 16.5 -78.5
t49.5 -58.5t84 -22zM376 484v79h54q17 0 23 4t7 16.5t1 39.5h86q0 -52 -10.5 -82.5t-39 -43.5t-82.5 -13h-39zM311 -210q-42 0 -56.5 21.5t-14.5 49.5q0 27 14.5 48t56.5 21t55.5 -21t13.5 -48q0 -28 -13.5 -49.5t-55.5 -21.5z" />
    <glyph glyph-name="uni1EE3" unicode="&#x1ee3;" horiz-adv-x="487" 
d="M239 -10q-73 0 -122 27.5t-73 75.5t-24 109q0 62 24 110t73 75.5t122 27.5q107 0 162.5 -58.5t55.5 -154.5q0 -60 -23.5 -108t-71.5 -76t-123 -28zM239 106q37 0 55 15t23.5 38.5t5.5 47.5q0 25 -5.5 48t-23.5 38.5t-55 15.5t-55.5 -15.5t-24 -38.5t-5.5 -48
q0 -24 5.5 -47.5t24 -38.5t55.5 -15zM267 335v79h54q17 0 23 4t7 16.5t1 39.5h86q0 -52 -10.5 -82.5t-39 -43.5t-82.5 -13h-39zM245 -210q-42 0 -56.5 21.5t-14.5 49.5q0 27 14.5 48t56.5 21t55.5 -21t13.5 -48q0 -28 -13.5 -49.5t-55.5 -21.5z" />
    <glyph glyph-name="uni1EE4" unicode="&#x1ee4;" horiz-adv-x="614" 
d="M310 -14q-126 0 -190.5 66.5t-64.5 187.5v323h150v-322q0 -42 11 -66.5t27.5 -36.5t34.5 -15.5t32 -3.5q23 0 47.5 7t41.5 33t17 82v322h150v-323q0 -123 -63.5 -188.5t-192.5 -65.5zM308 -210q-42 0 -56.5 21.5t-14.5 49.5q0 27 14.5 48t56.5 21t55.5 -21t13.5 -48
q0 -28 -13.5 -49.5t-55.5 -21.5z" />
    <glyph glyph-name="uni1EE5" unicode="&#x1ee5;" horiz-adv-x="476" 
d="M170 -10q-45 0 -72.5 16t-42 41.5t-19.5 55t-5.5 57t-0.5 46.5v208h136v-209q0 -21 3.5 -42.5t18 -36t47.5 -14.5t47 14.5t17 36t3 42.5v209h144v-414h-121l-23 66h-2l-5.5 -11.5t-19.5 -26.5t-39.5 -26.5t-65.5 -11.5zM239 -210q-42 0 -56.5 21.5t-14.5 49.5
q0 27 14.5 48t56.5 21t55.5 -21t13.5 -48q0 -28 -13.5 -49.5t-55.5 -21.5z" />
    <glyph glyph-name="uni1EE6" unicode="&#x1ee6;" horiz-adv-x="614" 
d="M310 -14q-126 0 -190.5 66.5t-64.5 187.5v323h150v-322q0 -42 11 -66.5t27.5 -36.5t34.5 -15.5t32 -3.5q23 0 47.5 7t41.5 33t17 82v322h150v-323q0 -123 -63.5 -188.5t-192.5 -65.5zM264 607v20q7 13 23 22t30.5 20t14.5 29q0 12 -9.5 17.5t-22.5 5.5t-25.5 -6.5
t-17.5 -18.5l-52 37q11 36 42 54t66 18q38 0 69.5 -22.5t31.5 -69.5q0 -33 -13 -50.5t-28.5 -29t-23.5 -26.5h-85z" />
    <glyph glyph-name="uni1EE7" unicode="&#x1ee7;" horiz-adv-x="476" 
d="M170 -10q-45 0 -72.5 16t-42 41.5t-19.5 55t-5.5 57t-0.5 46.5v208h136v-209q0 -21 3.5 -42.5t18 -36t47.5 -14.5t47 14.5t17 36t3 42.5v209h144v-414h-121l-23 66h-2l-5.5 -11.5t-19.5 -26.5t-39.5 -26.5t-65.5 -11.5zM195 458v20q7 13 23 22t30.5 20t14.5 29
q0 12 -9.5 17.5t-22.5 5.5t-25.5 -6.5t-17.5 -18.5l-52 37q11 36 42 54t66 18q38 0 69.5 -22.5t31.5 -69.5q0 -33 -13 -50.5t-28.5 -29t-23.5 -26.5h-85z" />
    <glyph glyph-name="uni1EE8" unicode="&#x1ee8;" horiz-adv-x="614" 
d="M310 -14q-126 0 -190.5 66.5t-64.5 187.5v323h150v-322q0 -42 11 -66.5t27.5 -36.5t34.5 -15.5t32 -3.5q23 0 47.5 7t41.5 33t17 82v322h150v-323q0 -123 -63.5 -188.5t-192.5 -65.5zM509 484v79h54q17 0 23 4t7 16.5t1 39.5h86q0 -52 -10.5 -82.5t-39 -43.5t-82.5 -13
h-39zM339 610h-62v17l39 97h115v-22z" />
    <glyph glyph-name="uni1EE9" unicode="&#x1ee9;" horiz-adv-x="476" 
d="M170 -10q-45 0 -72.5 16t-42 41.5t-19.5 55t-5.5 57t-0.5 46.5v208h136v-209q0 -21 3.5 -42.5t18 -36t47.5 -14.5t47 14.5t17 36t3 42.5v209h144v-414h-121l-23 66h-2l-5.5 -11.5t-19.5 -26.5t-39.5 -26.5t-65.5 -11.5zM365 335v79h54q17 0 23 4t7 16.5t1 39.5h86
q0 -52 -10.5 -82.5t-39 -43.5t-82.5 -13h-39zM270 461h-62v17l39 97h115v-22z" />
    <glyph glyph-name="uni1EEA" unicode="&#x1eea;" horiz-adv-x="614" 
d="M310 -14q-126 0 -190.5 66.5t-64.5 187.5v323h150v-322q0 -42 11 -66.5t27.5 -36.5t34.5 -15.5t32 -3.5q23 0 47.5 7t41.5 33t17 82v322h150v-323q0 -123 -63.5 -188.5t-192.5 -65.5zM509 484v79h54q17 0 23 4t7 16.5t1 39.5h86q0 -52 -10.5 -82.5t-39 -43.5t-82.5 -13
h-39zM271 610l-92 92v22h115l39 -97v-17h-62z" />
    <glyph glyph-name="uni1EEB" unicode="&#x1eeb;" horiz-adv-x="476" 
d="M170 -10q-45 0 -72.5 16t-42 41.5t-19.5 55t-5.5 57t-0.5 46.5v208h136v-209q0 -21 3.5 -42.5t18 -36t47.5 -14.5t47 14.5t17 36t3 42.5v209h144v-414h-121l-23 66h-2l-5.5 -11.5t-19.5 -26.5t-39.5 -26.5t-65.5 -11.5zM365 335v79h54q17 0 23 4t7 16.5t1 39.5h86
q0 -52 -10.5 -82.5t-39 -43.5t-82.5 -13h-39zM202 461l-92 92v22h115l39 -97v-17h-62z" />
    <glyph glyph-name="uni1EEC" unicode="&#x1eec;" horiz-adv-x="614" 
d="M310 -14q-126 0 -190.5 66.5t-64.5 187.5v323h150v-322q0 -42 11 -66.5t27.5 -36.5t34.5 -15.5t32 -3.5q23 0 47.5 7t41.5 33t17 82v322h150v-323q0 -123 -63.5 -188.5t-192.5 -65.5zM509 484v79h54q17 0 23 4t7 16.5t1 39.5h86q0 -52 -10.5 -82.5t-39 -43.5t-82.5 -13
h-39zM264 607v20q7 13 23 22t30.5 20t14.5 29q0 12 -9.5 17.5t-22.5 5.5t-25.5 -6.5t-17.5 -18.5l-52 37q11 36 42 54t66 18q38 0 69.5 -22.5t31.5 -69.5q0 -33 -13 -50.5t-28.5 -29t-23.5 -26.5h-85z" />
    <glyph glyph-name="uni1EED" unicode="&#x1eed;" horiz-adv-x="476" 
d="M170 -10q-45 0 -72.5 16t-42 41.5t-19.5 55t-5.5 57t-0.5 46.5v208h136v-209q0 -21 3.5 -42.5t18 -36t47.5 -14.5t47 14.5t17 36t3 42.5v209h144v-414h-121l-23 66h-2l-5.5 -11.5t-19.5 -26.5t-39.5 -26.5t-65.5 -11.5zM365 335v79h54q17 0 23 4t7 16.5t1 39.5h86
q0 -52 -10.5 -82.5t-39 -43.5t-82.5 -13h-39zM195 458v20q7 13 23 22t30.5 20t14.5 29q0 12 -9.5 17.5t-22.5 5.5t-25.5 -6.5t-17.5 -18.5l-52 37q11 36 42 54t66 18q38 0 69.5 -22.5t31.5 -69.5q0 -33 -13 -50.5t-28.5 -29t-23.5 -26.5h-85z" />
    <glyph glyph-name="uni1EEE" unicode="&#x1eee;" horiz-adv-x="614" 
d="M310 -14q-126 0 -190.5 66.5t-64.5 187.5v323h150v-322q0 -42 11 -66.5t27.5 -36.5t34.5 -15.5t32 -3.5q23 0 47.5 7t41.5 33t17 82v322h150v-323q0 -123 -63.5 -188.5t-192.5 -65.5zM509 484v79h54q17 0 23 4t7 16.5t1 39.5h86q0 -52 -10.5 -82.5t-39 -43.5t-82.5 -13
h-39zM158 625q0 12 0.5 33.5t7.5 44t26 38.5t56 16q28 0 44.5 -9t26.5 -20t19 -20t21 -9q15 0 17.5 14.5t2.5 39.5h78q0 -19 -1.5 -41.5t-9.5 -43.5t-26.5 -34.5t-52.5 -13.5q-28 0 -44 9t-26 20t-18 20t-22 9q-16 0 -18.5 -13.5t-2.5 -39.5h-78z" />
    <glyph glyph-name="uni1EEF" unicode="&#x1eef;" horiz-adv-x="476" 
d="M170 -10q-45 0 -72.5 16t-42 41.5t-19.5 55t-5.5 57t-0.5 46.5v208h136v-209q0 -21 3.5 -42.5t18 -36t47.5 -14.5t47 14.5t17 36t3 42.5v209h144v-414h-121l-23 66h-2l-5.5 -11.5t-19.5 -26.5t-39.5 -26.5t-65.5 -11.5zM365 335v79h54q17 0 23 4t7 16.5t1 39.5h86
q0 -52 -10.5 -82.5t-39 -43.5t-82.5 -13h-39zM89 476q0 12 0.5 33.5t7.5 44t26 38.5t56 16q28 0 44.5 -9t26.5 -20t19 -20t21 -9q15 0 17.5 14.5t2.5 39.5h78q0 -19 -1.5 -41.5t-9.5 -43.5t-26.5 -34.5t-52.5 -13.5q-28 0 -44 9t-26 20t-18 20t-22 9q-16 0 -18.5 -13.5
t-2.5 -39.5h-78z" />
    <glyph glyph-name="uni1EF0" unicode="&#x1ef0;" horiz-adv-x="614" 
d="M310 -14q-126 0 -190.5 66.5t-64.5 187.5v323h150v-322q0 -42 11 -66.5t27.5 -36.5t34.5 -15.5t32 -3.5q23 0 47.5 7t41.5 33t17 82v322h150v-323q0 -123 -63.5 -188.5t-192.5 -65.5zM509 484v79h54q17 0 23 4t7 16.5t1 39.5h86q0 -52 -10.5 -82.5t-39 -43.5t-82.5 -13
h-39zM308 -210q-42 0 -56.5 21.5t-14.5 49.5q0 27 14.5 48t56.5 21t55.5 -21t13.5 -48q0 -28 -13.5 -49.5t-55.5 -21.5z" />
    <glyph glyph-name="uni1EF1" unicode="&#x1ef1;" horiz-adv-x="476" 
d="M170 -10q-45 0 -72.5 16t-42 41.5t-19.5 55t-5.5 57t-0.5 46.5v208h136v-209q0 -21 3.5 -42.5t18 -36t47.5 -14.5t47 14.5t17 36t3 42.5v209h144v-414h-121l-23 66h-2l-5.5 -11.5t-19.5 -26.5t-39.5 -26.5t-65.5 -11.5zM365 335v79h54q17 0 23 4t7 16.5t1 39.5h86
q0 -52 -10.5 -82.5t-39 -43.5t-82.5 -13h-39zM239 -210q-42 0 -56.5 21.5t-14.5 49.5q0 27 14.5 48t56.5 21t55.5 -21t13.5 -48q0 -28 -13.5 -49.5t-55.5 -21.5z" />
    <glyph glyph-name="Ygrave" unicode="&#x1ef2;" horiz-adv-x="464" 
d="M162 194l-191 369h157l107 -251l107 251h157l-197 -369h-140zM163 0v207h139v-207h-139zM196 610l-92 92v22h115l39 -97v-17h-62z" />
    <glyph glyph-name="ygrave" unicode="&#x1ef3;" 
d="M0 -199v106h70q15 0 28 1.5t25.5 13t25.5 41.5l12 28l-161 423h143l85 -282l93 282h143l-187 -462q-21 -51 -39 -81t-38 -45t-45.5 -20t-61.5 -5h-93zM201 461l-92 92v22h115l39 -97v-17h-62z" />
    <glyph glyph-name="uni1EF4" unicode="&#x1ef4;" horiz-adv-x="464" 
d="M162 194l-191 369h157l107 -251l107 251h157l-197 -369h-140zM163 0v207h139v-207h-139zM233 -210q-42 0 -56.5 21.5t-14.5 49.5q0 27 14.5 48t56.5 21t55.5 -21t13.5 -48q0 -28 -13.5 -49.5t-55.5 -21.5z" />
    <glyph glyph-name="uni1EF5" unicode="&#x1ef5;" 
d="M0 -199v106h70q15 0 28 1.5t25.5 13t25.5 41.5l12 28l-161 423h143l85 -282l93 282h143l-187 -462q-21 -51 -39 -81t-38 -45t-45.5 -20t-61.5 -5h-93zM375 -210q-42 0 -56.5 21.5t-14.5 49.5q0 27 14.5 48t56.5 21t55.5 -21t13.5 -48q0 -28 -13.5 -49.5t-55.5 -21.5z" />
    <glyph glyph-name="uni1EF6" unicode="&#x1ef6;" horiz-adv-x="464" 
d="M162 194l-191 369h157l107 -251l107 251h157l-197 -369h-140zM163 0v207h139v-207h-139zM189 607v20q7 13 23 22t30.5 20t14.5 29q0 12 -9.5 17.5t-22.5 5.5t-25.5 -6.5t-17.5 -18.5l-52 37q11 36 42 54t66 18q38 0 69.5 -22.5t31.5 -69.5q0 -33 -13 -50.5t-28.5 -29
t-23.5 -26.5h-85z" />
    <glyph glyph-name="uni1EF7" unicode="&#x1ef7;" 
d="M0 -199v106h70q15 0 28 1.5t25.5 13t25.5 41.5l12 28l-161 423h143l85 -282l93 282h143l-187 -462q-21 -51 -39 -81t-38 -45t-45.5 -20t-61.5 -5h-93zM194 458v20q7 13 23 22t30.5 20t14.5 29q0 12 -9.5 17.5t-22.5 5.5t-25.5 -6.5t-17.5 -18.5l-52 37q11 36 42 54t66 18
q38 0 69.5 -22.5t31.5 -69.5q0 -33 -13 -50.5t-28.5 -29t-23.5 -26.5h-85z" />
    <glyph glyph-name="uni1EF8" unicode="&#x1ef8;" horiz-adv-x="464" 
d="M162 194l-191 369h157l107 -251l107 251h157l-197 -369h-140zM163 0v207h139v-207h-139zM83 625q0 12 0.5 33.5t7.5 44t26 38.5t56 16q28 0 44.5 -9t26.5 -20t19 -20t21 -9q15 0 17.5 14.5t2.5 39.5h78q0 -19 -1.5 -41.5t-9.5 -43.5t-26.5 -34.5t-52.5 -13.5q-28 0 -44 9
t-26 20t-18 20t-22 9q-16 0 -18.5 -13.5t-2.5 -39.5h-78z" />
    <glyph glyph-name="uni1EF9" unicode="&#x1ef9;" 
d="M0 -199v106h70q15 0 28 1.5t25.5 13t25.5 41.5l12 28l-161 423h143l85 -282l93 282h143l-187 -462q-21 -51 -39 -81t-38 -45t-45.5 -20t-61.5 -5h-93zM88 476q0 12 0.5 33.5t7.5 44t26 38.5t56 16q28 0 44.5 -9t26.5 -20t19 -20t21 -9q15 0 17.5 14.5t2.5 39.5h78
q0 -19 -1.5 -41.5t-9.5 -43.5t-26.5 -34.5t-52.5 -13.5q-28 0 -44 9t-26 20t-18 20t-22 9q-16 0 -18.5 -13.5t-2.5 -39.5h-78z" />
    <glyph glyph-name="endash" unicode="&#x2013;" horiz-adv-x="437" 
d="M40 178v94h342v-94h-342z" />
    <glyph glyph-name="emdash" unicode="&#x2014;" horiz-adv-x="617" 
d="M40 178v94h522v-94h-522z" />
    <glyph glyph-name="quoteleft" unicode="&#x2018;" horiz-adv-x="279" 
d="M127 265q-39 0 -55.5 20.5t-16.5 51.5q0 29 14.5 49.5t55.5 20.5q40 0 57 -21t17 -50q0 -30 -16.5 -50.5t-55.5 -20.5zM55 335q0 9 2 35t10 58.5t26 63.5t48.5 51t77.5 20v-114q-39 0 -61.5 -11.5t-33.5 -28.5t-14 -34t-2 -28.5l1 -11.5h-54z" />
    <glyph glyph-name="quoteright" unicode="&#x2019;" horiz-adv-x="264" 
d="M45 265v114q39 0 61.5 11.5t33.5 28.5t14 34t2 28.5l-1 11.5h54q0 -9 -2 -35t-10 -58.5t-26 -63.5t-48.5 -51t-77.5 -20zM140 421q-41 0 -58 21t-17 50q0 30 16.5 50.5t55.5 20.5t55.5 -20t16.5 -52q0 -28 -14.5 -49t-54.5 -21z" />
    <glyph glyph-name="quotesinglbase" unicode="&#x201a;" horiz-adv-x="259" 
d="M50 -103v114q39 0 61.5 11.5t33.5 28.5t14 34t2 28.5l-1 11.5h54q0 -9 -2 -35t-10 -58.5t-26 -63.5t-48.5 -51t-77.5 -20zM145 53q-41 0 -58 21t-17 50q0 30 16.5 50.5t55.5 20.5t55.5 -20t16.5 -52q0 -28 -14.5 -49t-54.5 -21z" />
    <glyph glyph-name="quotedblleft" unicode="&#x201c;" horiz-adv-x="464" 
d="M250 335q0 9 2 35t10 58.5t26 63.5t48.5 51t77.5 20v-114q-39 0 -61.5 -11.5t-33.5 -28.5t-14 -34t-2 -28.5l1 -11.5h-54zM127 265q-39 0 -55.5 20.5t-16.5 51.5q0 29 14.5 49.5t55.5 20.5q40 0 57 -21t17 -50q0 -30 -16.5 -50.5t-55.5 -20.5zM55 335q0 9 2 35t10 58.5
t26 63.5t48.5 51t77.5 20v-114q-39 0 -61.5 -11.5t-33.5 -28.5t-14 -34t-2 -28.5l1 -11.5h-54zM322 265q-39 0 -55.5 20.5t-16.5 51.5q0 29 14.5 49.5t55.5 20.5q40 0 57 -21t17 -50q0 -30 -16.5 -50.5t-55.5 -20.5z" />
    <glyph glyph-name="quotedblright" unicode="&#x201d;" horiz-adv-x="464" 
d="M250 265v114q39 0 61.5 11.5t33.5 28.5t14 34t2 28.5l-1 11.5h54q0 -9 -2 -35t-10 -58.5t-26 -63.5t-48.5 -51t-77.5 -20zM55 265v114q39 0 61.5 11.5t33.5 28.5t14 34t2 28.5l-1 11.5h54q0 -9 -2 -35t-10 -58.5t-26 -63.5t-48.5 -51t-77.5 -20zM150 421q-41 0 -58 21
t-17 50q0 30 16.5 50.5t55.5 20.5t55.5 -20t16.5 -52q0 -28 -14.5 -49t-54.5 -21zM345 421q-41 0 -58 21t-17 50q0 30 16.5 50.5t55.5 20.5t55.5 -20t16.5 -52q0 -28 -14.5 -49t-54.5 -21z" />
    <glyph glyph-name="quotedblbase" unicode="&#x201e;" horiz-adv-x="420" 
d="M30 -103v114q39 0 61.5 11.5t33.5 28.5t14 34t2 28.5l-1 11.5h54q0 -9 -2 -35t-10 -58.5t-26 -63.5t-48.5 -51t-77.5 -20zM125 53q-41 0 -58 21t-17 50q0 30 16.5 50.5t55.5 20.5t55.5 -20t16.5 -52q0 -28 -14.5 -49t-54.5 -21zM225 -103v114q39 0 61.5 11.5t33.5 28.5
t14 34t2 28.5l-1 11.5h54q0 -9 -2 -35t-10 -58.5t-26 -63.5t-48.5 -51t-77.5 -20zM320 53q-41 0 -58 21t-17 50q0 30 16.5 50.5t55.5 20.5t55.5 -20t16.5 -52q0 -28 -14.5 -49t-54.5 -21z" />
    <glyph glyph-name="bullet" unicode="&#x2022;" horiz-adv-x="300" 
d="M136 184q-54 0 -72.5 27t-18.5 64q0 35 18.5 62t72.5 27t71.5 -27t17.5 -62q0 -37 -17.5 -64t-71.5 -27z" />
    <glyph glyph-name="ellipsis" unicode="&#x2026;" horiz-adv-x="745" 
d="M134 0q-47 0 -63 23t-16 55q0 31 16.5 53t62.5 22q45 0 61 -22t16 -53q0 -33 -16 -55.5t-61 -22.5zM374 0q-47 0 -63 23t-16 55q0 30 16 52.5t63 22.5q45 0 60.5 -22t15.5 -53q0 -32 -15.5 -55t-60.5 -23zM613 0q-46 0 -62.5 22.5t-16.5 55.5q0 31 16.5 53t62.5 22
q45 0 61 -22t16 -53q0 -33 -16 -55.5t-61 -22.5z" />
    <glyph glyph-name="perthousand" unicode="&#x2030;" horiz-adv-x="829" 
d="M153 0l-95 67l247 238l192 258l94 -66l-241 -229zM499 -10q-60 0 -87.5 32t-27.5 87q0 52 27 84t88 32q62 0 90 -32t28 -84t-28 -85.5t-90 -33.5zM497 77q19 0 27 9.5t8 22.5q0 14 -8 24t-27 10q-17 0 -25 -10t-8 -24q0 -13 8 -22.5t25 -9.5zM142 338q-61 0 -88.5 32
t-27.5 84q0 54 27.5 86.5t88.5 32.5t90 -32.5t29 -86.5q0 -50 -29 -83t-90 -33zM140 425q19 0 26.5 9.5t7.5 22.5q0 14 -7.5 24t-26.5 10q-17 0 -25 -10t-8 -24q0 -13 8 -22.5t25 -9.5zM776 -10q-60 0 -87.5 32t-27.5 87q0 52 27 84t88 32q62 0 90 -32t28 -84t-28 -85.5
t-90 -33.5zM774 77q19 0 27 9.5t8 22.5q0 14 -8 24t-27 10q-17 0 -25 -10t-8 -24q0 -13 8 -22.5t25 -9.5z" />
    <glyph glyph-name="guilsinglleft" unicode="&#x2039;" horiz-adv-x="425" 
d="M385 427v-106l-249 -83l249 -82v-107l-345 189z" />
    <glyph glyph-name="guilsinglright" unicode="&#x203a;" horiz-adv-x="435" 
d="M45 427l345 -189l-345 -189v107l249 82l-249 83v106z" />
    <glyph glyph-name="fraction" unicode="&#x2044;" horiz-adv-x="202" 
d="M-89 7l-61 50l233 248l208 255l61 -50l-224 -242z" />
    <glyph glyph-name="uni2074" unicode="&#x2074;" horiz-adv-x="264" 
d="M15 464v58q36 15 58.5 44.5t33 63.5t10.5 61h75q0 -42 -28 -89t-82 -80h167v-58h-234zM150 414v138h68v-138h-68z" />
    <glyph glyph-name="Euro" unicode="&#x20ac;" horiz-adv-x="654" 
d="M356 -10q-73 0 -133 32t-96 96t-36 159q0 93 36 159t97 101.5t135 35.5q82 0 135 -31t82 -80.5t37 -106.5l-140 -25q-11 56 -33 85t-81 29q-43 0 -70 -22t-40 -58.5t-13 -81.5q0 -76 28 -117.5t94 -41.5q47 0 75.5 29.5t38.5 87.5l142 -25q-8 -59 -38 -110.5t-84 -83
t-136 -31.5zM374 184h-334v75h349zM40 305v71h379l-15 -75z" />
    <glyph glyph-name="trademark" unicode="&#x2122;" horiz-adv-x="478" 
d="M201 354v208h91l30 -186l30 186h91v-208h-56l5 186l-32 -186h-76l-32 186l3 -186h-54zM54 354v164h-64v44h179v-44h-63v-164h-52z" />
    <glyph glyph-name="oneeighth" unicode="&#x215b;" horiz-adv-x="664" 
d="M75 308v206q-4 -27 -17 -40.5t-26 -18.5t-17 -5v76q5 -1 20.5 -0.5t30 10.5t16.5 37h61v-265h-68zM28 296v59h151v-59h-151zM105 7l-61 50l233 248l208 255l61 -50l-224 -242zM529 -14q-50 0 -84 21.5t-34 61.5q0 28 18.5 48t51.5 27q-24 2 -35.5 13t-15.5 24t-4 20
q0 35 28.5 55.5t74.5 20.5q48 0 76 -20.5t28 -55.5q0 -7 -3.5 -20t-15 -24t-36.5 -13q34 -7 52.5 -26.5t18.5 -48.5q0 -40 -34.5 -61.5t-85.5 -21.5zM530 39q25 0 39.5 11.5t14.5 30.5q0 23 -14.5 33t-39.5 10t-40 -10t-15 -33q0 -19 15 -30.5t40 -11.5zM529 156q22 0 34 9
t12 24q0 19 -12.5 27t-33.5 8q-20 0 -32 -8t-12 -27q0 -15 12 -24t32 -9z" />
    <glyph glyph-name="threeeighths" unicode="&#x215c;" horiz-adv-x="724" 
d="M133 282q-55 0 -87 26.5t-31 78.5l64 10q0 -26 14 -42t42 -16q20 0 31 11t11 26q0 11 -6 19.5t-16.5 13.5t-24.5 5h-25v34h27q15 0 29.5 8t14.5 24q0 17 -12.5 27.5t-34.5 10.5q-15 0 -26 -6.5t-17 -17.5t-6 -23l-59 10q0 8 4.5 22.5t16.5 31t33 27.5t53 11
q52 0 79.5 -22t27.5 -57q0 -22 -13.5 -42.5t-42.5 -22.5q28 -1 44 -21t16 -44q0 -37 -29.5 -59.5t-76.5 -22.5zM165 7l-61 50l233 248l208 255l61 -50l-224 -242zM589 -14q-50 0 -84 21.5t-34 61.5q0 28 18.5 48t51.5 27q-24 2 -35.5 13t-15.5 24t-4 20q0 35 28.5 55.5
t74.5 20.5q48 0 76 -20.5t28 -55.5q0 -7 -3.5 -20t-15 -24t-36.5 -13q34 -7 52.5 -26.5t18.5 -48.5q0 -40 -34.5 -61.5t-85.5 -21.5zM590 39q25 0 39.5 11.5t14.5 30.5q0 23 -14.5 33t-39.5 10t-40 -10t-15 -33q0 -19 15 -30.5t40 -11.5zM589 156q22 0 34 9t12 24
q0 19 -12.5 27t-33.5 8q-20 0 -32 -8t-12 -27q0 -15 12 -24t32 -9z" />
    <glyph glyph-name="fiveeighths" unicode="&#x215d;" horiz-adv-x="722" 
d="M126 282q-37 0 -61 13t-36 32.5t-14 37.5l67 10q1 -5 6 -14t15 -16t25 -7q19 0 29.5 12t12.5 27q2 17 -8.5 31.5t-33.5 14.5q-13 0 -20.5 -5.5t-11 -10.5t-3.5 -6l-71 11l15 147h187v-58h-141l-8 -73l7 10t23.5 19.5t42.5 9.5q48 0 70 -28t19 -63t-32.5 -64.5
t-78.5 -29.5zM163 7l-61 50l233 248l208 255l61 -50l-224 -242zM587 -14q-50 0 -84 21.5t-34 61.5q0 28 18.5 48t51.5 27q-24 2 -35.5 13t-15.5 24t-4 20q0 35 28.5 55.5t74.5 20.5q48 0 76 -20.5t28 -55.5q0 -7 -3.5 -20t-15 -24t-36.5 -13q34 -7 52.5 -26.5t18.5 -48.5
q0 -40 -34.5 -61.5t-85.5 -21.5zM588 39q25 0 39.5 11.5t14.5 30.5q0 23 -14.5 33t-39.5 10t-40 -10t-15 -33q0 -19 15 -30.5t40 -11.5zM587 156q22 0 34 9t12 24q0 19 -12.5 27t-33.5 8q-20 0 -32 -8t-12 -27q0 -15 12 -24t32 -9z" />
    <glyph glyph-name="seveneighths" unicode="&#x215e;" horiz-adv-x="725" 
d="M61 296q0 85 30.5 136t86.5 67h-163v60h225v-59q-15 -5 -34 -16t-36.5 -33t-29 -59.5t-11.5 -95.5h-68zM166 7l-61 50l233 248l208 255l61 -50l-224 -242zM590 -14q-50 0 -84 21.5t-34 61.5q0 28 18.5 48t51.5 27q-24 2 -35.5 13t-15.5 24t-4 20q0 35 28.5 55.5
t74.5 20.5q48 0 76 -20.5t28 -55.5q0 -7 -3.5 -20t-15 -24t-36.5 -13q34 -7 52.5 -26.5t18.5 -48.5q0 -40 -34.5 -61.5t-85.5 -21.5zM591 39q25 0 39.5 11.5t14.5 30.5q0 23 -14.5 33t-39.5 10t-40 -10t-15 -33q0 -19 15 -30.5t40 -11.5zM590 156q22 0 34 9t12 24
q0 19 -12.5 27t-33.5 8q-20 0 -32 -8t-12 -27q0 -15 12 -24t32 -9z" />
    <glyph glyph-name="arrowleft" unicode="&#x2190;" horiz-adv-x="424" 
d="M35 177v106q43 0 66.5 14t34 33t12.5 34t2 16h82q0 -1 -2 -21.5t-11 -50.5t-29.5 -60t-58 -50.5t-96.5 -20.5zM150 80q0 2 -2 16.5t-12.5 33.5t-34 33t-66.5 14v106q59 0 96.5 -20.5t58 -50.5t29.5 -60.5t11 -51l2 -20.5h-82zM35 177v106h354v-106h-354z" />
    <glyph glyph-name="arrowup" unicode="&#x2191;" horiz-adv-x="370" 
d="M335 250l-20.5 2t-51 11t-60.5 29.5t-50.5 58t-20.5 96.5h106q0 -43 14 -66.5t33 -34t34 -12.5t16 -2v-82zM132 93v354h106v-354h-106zM35 250v82q2 0 16.5 2t33.5 12.5t33 34t14 66.5h106q0 -59 -20.5 -96.5t-50.5 -58t-60 -29.5t-50.5 -11t-21.5 -2z" />
    <glyph glyph-name="arrowright" unicode="&#x2192;" horiz-adv-x="424" 
d="M389 177q-59 0 -96.5 20.5t-58 50.5t-29.5 60t-11 50.5t-2 21.5h82q0 -1 2 -16t12.5 -34t34 -33t66.5 -14v-106zM35 177v106h354v-106h-354zM192 80l2 20.5t11 51t29.5 60.5t58 50.5t96.5 20.5v-106q-43 0 -66.5 -14t-34 -33t-12.5 -33.5t-2 -16.5h-82z" />
    <glyph glyph-name="arrowdown" unicode="&#x2193;" horiz-adv-x="370" 
d="M132 93q0 59 20.5 96.5t50.5 58t60.5 29.5t51 11l20.5 2v-82q-1 0 -16 -2t-34 -12.5t-33 -34t-14 -66.5h-106zM132 93q0 43 -14 66.5t-33 34t-33.5 12.5t-16.5 2v82q1 0 21.5 -2t50.5 -11t60 -29.5t50.5 -58t20.5 -96.5h-106zM132 93v354h106v-354h-106z" />
    <glyph glyph-name="arrowboth" unicode="&#x2194;" horiz-adv-x="539" 
d="M504 176q-59 0 -96.5 20.5t-58 50.5t-29.5 60t-11 50.5t-2 21.5h82q0 -1 2 -16t12.5 -34t34 -33t66.5 -14v-106zM150 79q0 2 -2 16.5t-12.5 33.5t-34 33t-66.5 14v106q59 0 96.5 -20.5t58 -50.5t29.5 -60.5t11 -51l2 -20.5h-82zM35 176v106q43 0 66.5 14t34 33t12.5 34
t2 16h82q0 -1 -2 -21.5t-11 -50.5t-29.5 -60t-58 -50.5t-96.5 -20.5zM35 176v106h354v-106h-354zM150 176v106h354v-106h-354zM307 79l2 20.5t11 51t29.5 60.5t58 50.5t96.5 20.5v-106q-43 0 -66.5 -14t-34 -33t-12.5 -33.5t-2 -16.5h-82z" />
    <glyph glyph-name="arrowupdn" unicode="&#x2195;" horiz-adv-x="370" 
d="M335 250l-20.5 2t-51 11t-60.5 29.5t-50.5 58t-20.5 96.5h106q0 -43 14 -66.5t33 -34t34 -12.5t16 -2v-82zM132 -22q0 43 -14 66.5t-33 34t-33.5 12.5t-16.5 2v82q1 0 21.5 -2t50.5 -11t60 -29.5t50.5 -58t20.5 -96.5h-106zM132 -22q0 59 20.5 96.5t50.5 58t60.5 29.5
t51 11l20.5 2v-82q-1 0 -16 -2t-34 -12.5t-33 -34t-14 -66.5h-106zM132 -22v354h106v-354h-106zM132 93v354h106v-354h-106zM35 250v82q2 0 16.5 2t33.5 12.5t33 34t14 66.5h106q0 -59 -20.5 -96.5t-50.5 -58t-60 -29.5t-50.5 -11t-21.5 -2z" />
    <glyph glyph-name="uni2196" unicode="&#x2196;" horiz-adv-x="413" 
d="M300 99l-265 264l78 71l265 -264zM106 155l-58 58q1 1 11 12t17 31t-0.5 47t-40.5 60l78 71q42 -42 54 -82t4.5 -75.5t-22.5 -63t-29 -43zM318 367q-1 -1 -17 -14t-43.5 -27.5t-63.5 -21t-76.5 5.5t-82.5 53l78 71q33 -33 59.5 -39t46 1.5t30 17.5t11.5 11z" />
    <glyph glyph-name="uni2197" unicode="&#x2197;" horiz-adv-x="413" 
d="M113 99l-78 71l265 264l78 -71zM307 155l-14 15.5t-29 43t-22.5 63t4.5 75.5t54 82l78 -71q-33 -33 -40.5 -60t-0.5 -47t17 -31t11 -12zM95 367l58 58q1 -1 11.5 -11t30 -17.5t46 -1.5t59.5 39l78 -71q-42 -41 -82.5 -53t-76.5 -5.5t-63.5 21t-43.5 27.5t-17 14z" />
    <glyph glyph-name="uni2198" unicode="&#x2198;" horiz-adv-x="413" 
d="M300 99l-265 264l78 71l265 -264zM300 99q-33 33 -59.5 39t-46 -1.5t-30 -17.5t-11.5 -11l-58 58q1 1 17 14t43.5 27.5t63.5 21t76.5 -5.5t82.5 -53zM300 99q-42 42 -54 82t-4.5 75.5t22.5 63t29 43l14 15.5l58 -58q-1 -1 -11 -12t-17 -31t0.5 -47t40.5 -60z" />
    <glyph glyph-name="uni2199" unicode="&#x2199;" horiz-adv-x="600" 
d="M113 99l-78 71l265 264l78 -71zM113 99l-78 71q33 33 40.5 60t0.5 47t-17 31t-11 12l58 58l14 -15.5t29 -43t22.5 -63t-4.5 -75.5t-54 -82zM113 99l-78 71q42 41 82.5 53t76.5 5.5t63.5 -21t43.5 -27.5t17 -14l-58 -58q-1 1 -11.5 11t-30 17.5t-46 1.5t-59.5 -39z" />
    <glyph glyph-name="uni21A9" unicode="&#x21a9;" horiz-adv-x="468" 
d="M35 212v26q42 0 65 14t33.5 33t13 34t2.5 16h25q0 -1 -1.5 -13.5t-8 -30.5t-21.5 -36.5t-41 -30.5t-67 -12zM433 212h-398v26h398v-26zM174 115h-25q0 2 -2.5 16.5t-13 33.5t-33.5 33t-65 14v26q41 0 67 -12.5t41 -30.5t21.5 -36.5t8 -31zM405 404h28v-192h-28v192z" />
    <glyph glyph-name="carriagereturn" unicode="&#x21b5;" horiz-adv-x="468" 
d="M35 212v26q42 0 65 14t33.5 33t13 34t2.5 16h25q0 -1 -1.5 -13.5t-8 -30.5t-21.5 -36.5t-41 -30.5t-67 -12zM433 212h-398v26h398v-26zM174 115h-25q0 2 -2.5 16.5t-13 33.5t-33.5 33t-65 14v26q41 0 67 -12.5t41 -30.5t21.5 -36.5t8 -31zM405 404h28v-192h-28v192z" />
    <glyph glyph-name="minus" unicode="&#x2212;" horiz-adv-x="420" 
d="M99 178v94h222v-94h-222z" />
    <glyph glyph-name="uni2215" unicode="&#x2215;" horiz-adv-x="419" 
d="M25 0l254 563h130l-254 -563h-130z" />
    <glyph glyph-name="notequal" unicode="&#x2260;" horiz-adv-x="420" 
d="M59 19l168 374h130l-168 -374h-130zM45 81v90h330v-90h-330zM45 238v90h330v-90h-330z" />
    <glyph glyph-name="uni240D" unicode="&#x240d;" horiz-adv-x="600" 
d="M168 180q-55 0 -91.5 35.5t-36.5 105.5t36 104.5t94 34.5q44 0 76 -23.5t41 -73.5h-13q-8 41 -35 63.5t-69 22.5q-53 0 -85.5 -33t-32.5 -95q0 -64 32 -96.5t84 -32.5q46 0 73.5 22.5t34.5 62.5h14q-9 -48 -41 -72.5t-81 -24.5zM339 184v268h78q50 0 76.5 -15t26.5 -59
q0 -25 -15.5 -46.5t-48.5 -21.5q28 0 39 -13.5t12.5 -33t1 -38t3 -28.5t19.5 -5v-11l-8.5 -0.5t-17 5.5t-8.5 27q0 39 -4 58t-17.5 25.5t-43 6.5h-80.5v-119h-13zM352 316h77q40 0 59.5 14t19.5 48q0 39 -23.5 50t-67.5 11h-65v-123z" />
    <glyph glyph-name="I.ss01" horiz-adv-x="501" 
d="M188 -63q-1 128 0 210.5t-2.5 130t-18 69.5t-45.5 28t-87 6v118q57 0 88.5 8.5t45 30.5t16.5 62t3 104h119q0 -64 2.5 -104t16.5 -62t47 -30.5t93 -8.5v-118q-57 0 -90 -6t-48.5 -27.5t-20 -69.5t-3.5 -130.5t1 -210.5h-117zM242 192h11q0 86 1 135.5t7 73t21 30.5t45 7
q-39 0 -54.5 9t-17.5 28.5t-2 50.5h-11q0 -31 -2 -50.5t-17 -28.5t-54 -9q31 0 46.5 -7t20.5 -30.5t5.5 -73t0.5 -135.5z" />
    <glyph glyph-name="N_o.dlig" horiz-adv-x="879" 
d="M740 341q-60 0 -89.5 31t-29.5 79q0 47 29 78.5t90 31.5q59 0 88.5 -30t29.5 -80q0 -46 -28.5 -78t-89.5 -32zM619 192v94h240v-94h-240zM740 422q9 0 15 4t9.5 10.5t3.5 15.5q0 7 -3.5 13.5t-9.5 11t-15 4.5q-11 0 -17.5 -4.5t-9.5 -11t-3 -13.5q0 -9 3 -15.5t9.5 -10.5
t17.5 -4zM429 563h146v-563h-268l-105 502h-2v-502h-145v563h248l124 -502h2v502z" />
    <glyph glyph-name="i.loclTRK" horiz-adv-x="230" 
d="M45 0v414h140v-414h-140zM116 459q-42 0 -56.5 21.5t-14.5 49.5q0 27 14.5 48t56.5 21t55.5 -21t13.5 -48q0 -28 -13.5 -49.5t-55.5 -21.5z" />
    <glyph glyph-name="a.ss01" horiz-adv-x="498" 
d="M380 -10q-39 0 -60 13t-29.5 31.5t-9.5 35.5t-1 24v185q0 11 -6 19t-17 12.5t-25 4.5q-15 0 -30.5 -6.5t-24.5 -22.5t-5 -45h-130q0 65 27.5 103.5t71.5 55t92 16.5q47 0 89.5 -15t69.5 -49t27 -91v-114q0 -11 0.5 -24t5 -22.5t15.5 -12t32 7.5v-75q0 1 -9.5 -7
t-29.5 -16t-53 -8zM141 -10q-56 0 -90.5 30.5t-34.5 79.5q0 31 13.5 52t37 34.5t53 22.5t60.5 16q43 10 64.5 17t28.5 15.5t7 21.5l1 -169q-14 -49 -46 -84.5t-94 -35.5zM201 87q19 3 37 22t30 47.5t12 59.5q-6 -7 -25 -13t-31 -11q-17 -6 -33 -17t-25.5 -25.5t-8.5 -32.5
q2 -20 17.5 -25.5t26.5 -4.5z" />
    <glyph glyph-name="aacute.ss01" horiz-adv-x="498" 
d="M380 -10q-39 0 -60 13t-29.5 31.5t-9.5 35.5t-1 24v185q0 11 -6 19t-17 12.5t-25 4.5q-15 0 -30.5 -6.5t-24.5 -22.5t-5 -45h-130q0 65 27.5 103.5t71.5 55t92 16.5q47 0 89.5 -15t69.5 -49t27 -91v-114q0 -11 0.5 -24t5 -22.5t15.5 -12t32 7.5v-75q0 1 -9.5 -7
t-29.5 -16t-53 -8zM141 -10q-56 0 -90.5 30.5t-34.5 79.5q0 31 13.5 52t37 34.5t53 22.5t60.5 16q43 10 64.5 17t28.5 15.5t7 21.5l1 -169q-14 -49 -46 -84.5t-94 -35.5zM201 87q19 3 37 22t30 47.5t12 59.5q-6 -7 -25 -13t-31 -11q-17 -6 -33 -17t-25.5 -25.5t-8.5 -32.5
q2 -20 17.5 -25.5t26.5 -4.5zM281 461h-62v17l39 97h115v-22z" />
    <glyph glyph-name="abreve.ss01" horiz-adv-x="498" 
d="M380 -10q-39 0 -60 13t-29.5 31.5t-9.5 35.5t-1 24v185q0 11 -6 19t-17 12.5t-25 4.5q-15 0 -30.5 -6.5t-24.5 -22.5t-5 -45h-130q0 65 27.5 103.5t71.5 55t92 16.5q47 0 89.5 -15t69.5 -49t27 -91v-114q0 -11 0.5 -24t5 -22.5t15.5 -12t32 7.5v-75q0 1 -9.5 -7
t-29.5 -16t-53 -8zM141 -10q-56 0 -90.5 30.5t-34.5 79.5q0 31 13.5 52t37 34.5t53 22.5t60.5 16q43 10 64.5 17t28.5 15.5t7 21.5l1 -169q-14 -49 -46 -84.5t-94 -35.5zM201 87q19 3 37 22t30 47.5t12 59.5q-6 -7 -25 -13t-31 -11q-17 -6 -33 -17t-25.5 -25.5t-8.5 -32.5
q2 -20 17.5 -25.5t26.5 -4.5zM249 464q-70 0 -108.5 32t-38.5 87h97q0 -25 14 -35.5t36 -10.5q23 0 36 10t13 36h97q0 -55 -37.5 -87t-108.5 -32z" />
    <glyph glyph-name="uni1EAF.ss01" horiz-adv-x="498" 
d="M380 -10q-39 0 -60 13t-29.5 31.5t-9.5 35.5t-1 24v185q0 11 -6 19t-17 12.5t-25 4.5q-15 0 -30.5 -6.5t-24.5 -22.5t-5 -45h-130q0 65 27.5 103.5t71.5 55t92 16.5q47 0 89.5 -15t69.5 -49t27 -91v-114q0 -11 0.5 -24t5 -22.5t15.5 -12t32 7.5v-75q0 1 -9.5 -7
t-29.5 -16t-53 -8zM141 -10q-56 0 -90.5 30.5t-34.5 79.5q0 31 13.5 52t37 34.5t53 22.5t60.5 16q43 10 64.5 17t28.5 15.5t7 21.5l1 -169q-14 -49 -46 -84.5t-94 -35.5zM201 87q19 3 37 22t30 47.5t12 59.5q-6 -7 -25 -13t-31 -11q-17 -6 -33 -17t-25.5 -25.5t-8.5 -32.5
q2 -20 17.5 -25.5t26.5 -4.5zM249 464q-70 0 -108.5 32t-38.5 87h97q0 -25 14 -35.5t36 -10.5q23 0 36 10t13 36h97q0 -55 -37.5 -87t-108.5 -32zM281 627h-62v17l39 97h115v-22z" />
    <glyph glyph-name="uni1EB7.ss01" horiz-adv-x="498" 
d="M380 -10q-39 0 -60 13t-29.5 31.5t-9.5 35.5t-1 24v185q0 11 -6 19t-17 12.5t-25 4.5q-15 0 -30.5 -6.5t-24.5 -22.5t-5 -45h-130q0 65 27.5 103.5t71.5 55t92 16.5q47 0 89.5 -15t69.5 -49t27 -91v-114q0 -11 0.5 -24t5 -22.5t15.5 -12t32 7.5v-75q0 1 -9.5 -7
t-29.5 -16t-53 -8zM141 -10q-56 0 -90.5 30.5t-34.5 79.5q0 31 13.5 52t37 34.5t53 22.5t60.5 16q43 10 64.5 17t28.5 15.5t7 21.5l1 -169q-14 -49 -46 -84.5t-94 -35.5zM201 87q19 3 37 22t30 47.5t12 59.5q-6 -7 -25 -13t-31 -11q-17 -6 -33 -17t-25.5 -25.5t-8.5 -32.5
q2 -20 17.5 -25.5t26.5 -4.5zM250 -210q-42 0 -56.5 21.5t-14.5 49.5q0 27 14.5 48t56.5 21t55.5 -21t13.5 -48q0 -28 -13.5 -49.5t-55.5 -21.5zM249 464q-70 0 -108.5 32t-38.5 87h97q0 -25 14 -35.5t36 -10.5q23 0 36 10t13 36h97q0 -55 -37.5 -87t-108.5 -32z" />
    <glyph glyph-name="uni1EB1.ss01" horiz-adv-x="498" 
d="M380 -10q-39 0 -60 13t-29.5 31.5t-9.5 35.5t-1 24v185q0 11 -6 19t-17 12.5t-25 4.5q-15 0 -30.5 -6.5t-24.5 -22.5t-5 -45h-130q0 65 27.5 103.5t71.5 55t92 16.5q47 0 89.5 -15t69.5 -49t27 -91v-114q0 -11 0.5 -24t5 -22.5t15.5 -12t32 7.5v-75q0 1 -9.5 -7
t-29.5 -16t-53 -8zM141 -10q-56 0 -90.5 30.5t-34.5 79.5q0 31 13.5 52t37 34.5t53 22.5t60.5 16q43 10 64.5 17t28.5 15.5t7 21.5l1 -169q-14 -49 -46 -84.5t-94 -35.5zM201 87q19 3 37 22t30 47.5t12 59.5q-6 -7 -25 -13t-31 -11q-17 -6 -33 -17t-25.5 -25.5t-8.5 -32.5
q2 -20 17.5 -25.5t26.5 -4.5zM249 464q-70 0 -108.5 32t-38.5 87h97q0 -25 14 -35.5t36 -10.5q23 0 36 10t13 36h97q0 -55 -37.5 -87t-108.5 -32zM213 627l-92 92v22h115l39 -97v-17h-62z" />
    <glyph glyph-name="uni1EB3.ss01" horiz-adv-x="498" 
d="M380 -10q-39 0 -60 13t-29.5 31.5t-9.5 35.5t-1 24v185q0 11 -6 19t-17 12.5t-25 4.5q-15 0 -30.5 -6.5t-24.5 -22.5t-5 -45h-130q0 65 27.5 103.5t71.5 55t92 16.5q47 0 89.5 -15t69.5 -49t27 -91v-114q0 -11 0.5 -24t5 -22.5t15.5 -12t32 7.5v-75q0 1 -9.5 -7
t-29.5 -16t-53 -8zM141 -10q-56 0 -90.5 30.5t-34.5 79.5q0 31 13.5 52t37 34.5t53 22.5t60.5 16q43 10 64.5 17t28.5 15.5t7 21.5l1 -169q-14 -49 -46 -84.5t-94 -35.5zM201 87q19 3 37 22t30 47.5t12 59.5q-6 -7 -25 -13t-31 -11q-17 -6 -33 -17t-25.5 -25.5t-8.5 -32.5
q2 -20 17.5 -25.5t26.5 -4.5zM249 464q-70 0 -108.5 32t-38.5 87h97q0 -25 14 -35.5t36 -10.5q23 0 36 10t13 36h97q0 -55 -37.5 -87t-108.5 -32zM206 624v20q7 13 23 22t30.5 20t14.5 29q0 12 -9.5 17.5t-22.5 5.5t-25.5 -6.5t-17.5 -18.5l-52 37q11 36 42 54t66 18
q38 0 69.5 -22.5t31.5 -69.5q0 -33 -13 -50.5t-28.5 -29t-23.5 -26.5h-85z" />
    <glyph glyph-name="uni1EB5.ss01" horiz-adv-x="498" 
d="M380 -10q-39 0 -60 13t-29.5 31.5t-9.5 35.5t-1 24v185q0 11 -6 19t-17 12.5t-25 4.5q-15 0 -30.5 -6.5t-24.5 -22.5t-5 -45h-130q0 65 27.5 103.5t71.5 55t92 16.5q47 0 89.5 -15t69.5 -49t27 -91v-114q0 -11 0.5 -24t5 -22.5t15.5 -12t32 7.5v-75q0 1 -9.5 -7
t-29.5 -16t-53 -8zM141 -10q-56 0 -90.5 30.5t-34.5 79.5q0 31 13.5 52t37 34.5t53 22.5t60.5 16q43 10 64.5 17t28.5 15.5t7 21.5l1 -169q-14 -49 -46 -84.5t-94 -35.5zM201 87q19 3 37 22t30 47.5t12 59.5q-6 -7 -25 -13t-31 -11q-17 -6 -33 -17t-25.5 -25.5t-8.5 -32.5
q2 -20 17.5 -25.5t26.5 -4.5zM253 464q-70 0 -108.5 32t-38.5 87h97q0 -25 14 -35.5t36 -10.5q23 0 36 10t13 36h97q0 -55 -37.5 -87t-108.5 -32zM104 642q0 12 0.5 33.5t7.5 44t26 38.5t56 16q28 0 44.5 -9t26.5 -20t19 -20t21 -9q15 0 17.5 14.5t2.5 39.5h78
q0 -19 -1.5 -41.5t-9.5 -43.5t-26.5 -34.5t-52.5 -13.5q-28 0 -44 9t-26 20t-18 20t-22 9q-16 0 -18.5 -13.5t-2.5 -39.5h-78z" />
    <glyph glyph-name="acircumflex.ss01" horiz-adv-x="498" 
d="M380 -10q-39 0 -60 13t-29.5 31.5t-9.5 35.5t-1 24v185q0 11 -6 19t-17 12.5t-25 4.5q-15 0 -30.5 -6.5t-24.5 -22.5t-5 -45h-130q0 65 27.5 103.5t71.5 55t92 16.5q47 0 89.5 -15t69.5 -49t27 -91v-114q0 -11 0.5 -24t5 -22.5t15.5 -12t32 7.5v-75q0 1 -9.5 -7
t-29.5 -16t-53 -8zM141 -10q-56 0 -90.5 30.5t-34.5 79.5q0 31 13.5 52t37 34.5t53 22.5t60.5 16q43 10 64.5 17t28.5 15.5t7 21.5l1 -169q-14 -49 -46 -84.5t-94 -35.5zM201 87q19 3 37 22t30 47.5t12 59.5q-6 -7 -25 -13t-31 -11q-17 -6 -33 -17t-25.5 -25.5t-8.5 -32.5
q2 -20 17.5 -25.5t26.5 -4.5zM93 468v10l127 114h58l126 -114v-10h-120l-32 36h-6l-29 -36h-124z" />
    <glyph glyph-name="uni1EA5.ss01" horiz-adv-x="498" 
d="M380 -10q-39 0 -60 13t-29.5 31.5t-9.5 35.5t-1 24v185q0 11 -6 19t-17 12.5t-25 4.5q-15 0 -30.5 -6.5t-24.5 -22.5t-5 -45h-130q0 65 27.5 103.5t71.5 55t92 16.5q47 0 89.5 -15t69.5 -49t27 -91v-114q0 -11 0.5 -24t5 -22.5t15.5 -12t32 7.5v-75q0 1 -9.5 -7
t-29.5 -16t-53 -8zM141 -10q-56 0 -90.5 30.5t-34.5 79.5q0 31 13.5 52t37 34.5t53 22.5t60.5 16q43 10 64.5 17t28.5 15.5t7 21.5l1 -169q-14 -49 -46 -84.5t-94 -35.5zM201 87q19 3 37 22t30 47.5t12 59.5q-6 -7 -25 -13t-31 -11q-17 -6 -33 -17t-25.5 -25.5t-8.5 -32.5
q2 -20 17.5 -25.5t26.5 -4.5zM96 468v10l127 114h58l126 -114v-10h-120l-32 36h-6l-29 -36h-124zM406 564h-62v17l39 97h115v-22z" />
    <glyph glyph-name="uni1EAD.ss01" horiz-adv-x="498" 
d="M380 -10q-39 0 -60 13t-29.5 31.5t-9.5 35.5t-1 24v185q0 11 -6 19t-17 12.5t-25 4.5q-15 0 -30.5 -6.5t-24.5 -22.5t-5 -45h-130q0 65 27.5 103.5t71.5 55t92 16.5q47 0 89.5 -15t69.5 -49t27 -91v-114q0 -11 0.5 -24t5 -22.5t15.5 -12t32 7.5v-75q0 1 -9.5 -7
t-29.5 -16t-53 -8zM141 -10q-56 0 -90.5 30.5t-34.5 79.5q0 31 13.5 52t37 34.5t53 22.5t60.5 16q43 10 64.5 17t28.5 15.5t7 21.5l1 -169q-14 -49 -46 -84.5t-94 -35.5zM201 87q19 3 37 22t30 47.5t12 59.5q-6 -7 -25 -13t-31 -11q-17 -6 -33 -17t-25.5 -25.5t-8.5 -32.5
q2 -20 17.5 -25.5t26.5 -4.5zM250 -210q-42 0 -56.5 21.5t-14.5 49.5q0 27 14.5 48t56.5 21t55.5 -21t13.5 -48q0 -28 -13.5 -49.5t-55.5 -21.5zM93 468v10l127 114h58l126 -114v-10h-120l-32 36h-6l-29 -36h-124z" />
    <glyph glyph-name="uni1EA7.ss01" horiz-adv-x="498" 
d="M380 -10q-39 0 -60 13t-29.5 31.5t-9.5 35.5t-1 24v185q0 11 -6 19t-17 12.5t-25 4.5q-15 0 -30.5 -6.5t-24.5 -22.5t-5 -45h-130q0 65 27.5 103.5t71.5 55t92 16.5q47 0 89.5 -15t69.5 -49t27 -91v-114q0 -11 0.5 -24t5 -22.5t15.5 -12t32 7.5v-75q0 1 -9.5 -7
t-29.5 -16t-53 -8zM141 -10q-56 0 -90.5 30.5t-34.5 79.5q0 31 13.5 52t37 34.5t53 22.5t60.5 16q43 10 64.5 17t28.5 15.5t7 21.5l1 -169q-14 -49 -46 -84.5t-94 -35.5zM201 87q19 3 37 22t30 47.5t12 59.5q-6 -7 -25 -13t-31 -11q-17 -6 -33 -17t-25.5 -25.5t-8.5 -32.5
q2 -20 17.5 -25.5t26.5 -4.5zM403 563l-92 92v22h115l39 -97v-17h-62zM93 464v10l127 114h58l126 -114v-10h-120l-32 36h-6l-29 -36h-124z" />
    <glyph glyph-name="uni1EA9.ss01" horiz-adv-x="498" 
d="M380 -10q-39 0 -60 13t-29.5 31.5t-9.5 35.5t-1 24v185q0 11 -6 19t-17 12.5t-25 4.5q-15 0 -30.5 -6.5t-24.5 -22.5t-5 -45h-130q0 65 27.5 103.5t71.5 55t92 16.5q47 0 89.5 -15t69.5 -49t27 -91v-114q0 -11 0.5 -24t5 -22.5t15.5 -12t32 7.5v-75q0 1 -9.5 -7
t-29.5 -16t-53 -8zM141 -10q-56 0 -90.5 30.5t-34.5 79.5q0 31 13.5 52t37 34.5t53 22.5t60.5 16q43 10 64.5 17t28.5 15.5t7 21.5l1 -169q-14 -49 -46 -84.5t-94 -35.5zM201 87q19 3 37 22t30 47.5t12 59.5q-6 -7 -25 -13t-31 -11q-17 -6 -33 -17t-25.5 -25.5t-8.5 -32.5
q2 -20 17.5 -25.5t26.5 -4.5zM93 464v10l127 114h58l126 -114v-10h-120l-32 36h-6l-29 -36h-124zM335 550v20q7 13 23 22t30.5 20t14.5 29q0 12 -9.5 17.5t-22.5 5.5t-25.5 -6.5t-17.5 -18.5l-52 37q11 36 42 54t66 18q38 0 69.5 -22.5t31.5 -69.5q0 -33 -13 -50.5
t-28.5 -29t-23.5 -26.5h-85z" />
    <glyph glyph-name="uni1EAB.ss01" horiz-adv-x="498" 
d="M380 -10q-39 0 -60 13t-29.5 31.5t-9.5 35.5t-1 24v185q0 11 -6 19t-17 12.5t-25 4.5q-15 0 -30.5 -6.5t-24.5 -22.5t-5 -45h-130q0 65 27.5 103.5t71.5 55t92 16.5q47 0 89.5 -15t69.5 -49t27 -91v-114q0 -11 0.5 -24t5 -22.5t15.5 -12t32 7.5v-75q0 1 -9.5 -7
t-29.5 -16t-53 -8zM141 -10q-56 0 -90.5 30.5t-34.5 79.5q0 31 13.5 52t37 34.5t53 22.5t60.5 16q43 10 64.5 17t28.5 15.5t7 21.5l1 -169q-14 -49 -46 -84.5t-94 -35.5zM201 87q19 3 37 22t30 47.5t12 59.5q-6 -7 -25 -13t-31 -11q-17 -6 -33 -17t-25.5 -25.5t-8.5 -32.5
q2 -20 17.5 -25.5t26.5 -4.5zM94 464v10l127 114h58l126 -114v-10h-120l-32 36h-6l-29 -36h-124zM94 617q0 12 0.5 33.5t7.5 44t26 38.5t56 16q28 0 44.5 -9t26.5 -20t19 -20t21 -9q15 0 17.5 14.5t2.5 39.5h78q0 -19 -1.5 -41.5t-9.5 -43.5t-26.5 -34.5t-52.5 -13.5
q-28 0 -44 9t-26 20t-18 20t-22 9q-16 0 -18.5 -13.5t-2.5 -39.5h-78z" />
    <glyph glyph-name="adieresis.ss01" horiz-adv-x="498" 
d="M380 -10q-39 0 -60 13t-29.5 31.5t-9.5 35.5t-1 24v185q0 11 -6 19t-17 12.5t-25 4.5q-15 0 -30.5 -6.5t-24.5 -22.5t-5 -45h-130q0 65 27.5 103.5t71.5 55t92 16.5q47 0 89.5 -15t69.5 -49t27 -91v-114q0 -11 0.5 -24t5 -22.5t15.5 -12t32 7.5v-75q0 1 -9.5 -7
t-29.5 -16t-53 -8zM141 -10q-56 0 -90.5 30.5t-34.5 79.5q0 31 13.5 52t37 34.5t53 22.5t60.5 16q43 10 64.5 17t28.5 15.5t7 21.5l1 -169q-14 -49 -46 -84.5t-94 -35.5zM201 87q19 3 37 22t30 47.5t12 59.5q-6 -7 -25 -13t-31 -11q-17 -6 -33 -17t-25.5 -25.5t-8.5 -32.5
q2 -20 17.5 -25.5t26.5 -4.5zM147 455q-45 0 -60.5 22.5t-15.5 53.5q0 29 15.5 51.5t60.5 22.5t59.5 -22.5t14.5 -51.5q0 -31 -14.5 -53.5t-59.5 -22.5zM353 455q-45 0 -60.5 22.5t-15.5 53.5q0 29 15.5 51.5t60.5 22.5t59.5 -22.5t14.5 -51.5q0 -31 -14.5 -53.5
t-59.5 -22.5z" />
    <glyph glyph-name="uni1EA1.ss01" horiz-adv-x="498" 
d="M380 -10q-39 0 -60 13t-29.5 31.5t-9.5 35.5t-1 24v185q0 11 -6 19t-17 12.5t-25 4.5q-15 0 -30.5 -6.5t-24.5 -22.5t-5 -45h-130q0 65 27.5 103.5t71.5 55t92 16.5q47 0 89.5 -15t69.5 -49t27 -91v-114q0 -11 0.5 -24t5 -22.5t15.5 -12t32 7.5v-75q0 1 -9.5 -7
t-29.5 -16t-53 -8zM141 -10q-56 0 -90.5 30.5t-34.5 79.5q0 31 13.5 52t37 34.5t53 22.5t60.5 16q43 10 64.5 17t28.5 15.5t7 21.5l1 -169q-14 -49 -46 -84.5t-94 -35.5zM201 87q19 3 37 22t30 47.5t12 59.5q-6 -7 -25 -13t-31 -11q-17 -6 -33 -17t-25.5 -25.5t-8.5 -32.5
q2 -20 17.5 -25.5t26.5 -4.5zM250 -210q-42 0 -56.5 21.5t-14.5 49.5q0 27 14.5 48t56.5 21t55.5 -21t13.5 -48q0 -28 -13.5 -49.5t-55.5 -21.5z" />
    <glyph glyph-name="agrave.ss01" horiz-adv-x="498" 
d="M380 -10q-39 0 -60 13t-29.5 31.5t-9.5 35.5t-1 24v185q0 11 -6 19t-17 12.5t-25 4.5q-15 0 -30.5 -6.5t-24.5 -22.5t-5 -45h-130q0 65 27.5 103.5t71.5 55t92 16.5q47 0 89.5 -15t69.5 -49t27 -91v-114q0 -11 0.5 -24t5 -22.5t15.5 -12t32 7.5v-75q0 1 -9.5 -7
t-29.5 -16t-53 -8zM141 -10q-56 0 -90.5 30.5t-34.5 79.5q0 31 13.5 52t37 34.5t53 22.5t60.5 16q43 10 64.5 17t28.5 15.5t7 21.5l1 -169q-14 -49 -46 -84.5t-94 -35.5zM201 87q19 3 37 22t30 47.5t12 59.5q-6 -7 -25 -13t-31 -11q-17 -6 -33 -17t-25.5 -25.5t-8.5 -32.5
q2 -20 17.5 -25.5t26.5 -4.5zM213 461l-92 92v22h115l39 -97v-17h-62z" />
    <glyph glyph-name="uni1EA3.ss01" horiz-adv-x="498" 
d="M380 -10q-39 0 -60 13t-29.5 31.5t-9.5 35.5t-1 24v185q0 11 -6 19t-17 12.5t-25 4.5q-15 0 -30.5 -6.5t-24.5 -22.5t-5 -45h-130q0 65 27.5 103.5t71.5 55t92 16.5q47 0 89.5 -15t69.5 -49t27 -91v-114q0 -11 0.5 -24t5 -22.5t15.5 -12t32 7.5v-75q0 1 -9.5 -7
t-29.5 -16t-53 -8zM141 -10q-56 0 -90.5 30.5t-34.5 79.5q0 31 13.5 52t37 34.5t53 22.5t60.5 16q43 10 64.5 17t28.5 15.5t7 21.5l1 -169q-14 -49 -46 -84.5t-94 -35.5zM201 87q19 3 37 22t30 47.5t12 59.5q-6 -7 -25 -13t-31 -11q-17 -6 -33 -17t-25.5 -25.5t-8.5 -32.5
q2 -20 17.5 -25.5t26.5 -4.5zM206 458v20q7 13 23 22t30.5 20t14.5 29q0 12 -9.5 17.5t-22.5 5.5t-25.5 -6.5t-17.5 -18.5l-52 37q11 36 42 54t66 18q38 0 69.5 -22.5t31.5 -69.5q0 -33 -13 -50.5t-28.5 -29t-23.5 -26.5h-85z" />
    <glyph glyph-name="amacron.ss01" horiz-adv-x="498" 
d="M380 -10q-39 0 -60 13t-29.5 31.5t-9.5 35.5t-1 24v185q0 11 -6 19t-17 12.5t-25 4.5q-15 0 -30.5 -6.5t-24.5 -22.5t-5 -45h-130q0 65 27.5 103.5t71.5 55t92 16.5q47 0 89.5 -15t69.5 -49t27 -91v-114q0 -11 0.5 -24t5 -22.5t15.5 -12t32 7.5v-75q0 1 -9.5 -7
t-29.5 -16t-53 -8zM141 -10q-56 0 -90.5 30.5t-34.5 79.5q0 31 13.5 52t37 34.5t53 22.5t60.5 16q43 10 64.5 17t28.5 15.5t7 21.5l1 -169q-14 -49 -46 -84.5t-94 -35.5zM201 87q19 3 37 22t30 47.5t12 59.5q-6 -7 -25 -13t-31 -11q-17 -6 -33 -17t-25.5 -25.5t-8.5 -32.5
q2 -20 17.5 -25.5t26.5 -4.5zM98 481v94h302v-94h-302z" />
    <glyph glyph-name="aogonek.ss01" horiz-adv-x="498" 
d="M414 -199q-24 0 -50 9t-44 29.5t-18 56.5q0 31 17 55.5t42.5 41.5t51 28.5t42.5 16.5l17 5v-62l-10.5 -4t-24.5 -11.5t-24.5 -18.5t-10.5 -26q0 -10 7 -16t18 -6q12 0 21 6.5t14 13l5 6.5l71 -64l-13.5 -15t-40.5 -30t-70 -15zM380 -10q-39 0 -60 13t-29.5 31.5
t-9.5 35.5t-1 24v185q0 11 -6 19t-17 12.5t-25 4.5q-15 0 -30.5 -6.5t-24.5 -22.5t-5 -45h-130q0 65 27.5 103.5t71.5 55t92 16.5q47 0 89.5 -15t69.5 -49t27 -91v-114q0 -11 0.5 -24t5 -22.5t15.5 -12t32 7.5v-75q0 1 -9.5 -7t-29.5 -16t-53 -8zM141 -10q-56 0 -90.5 30.5
t-34.5 79.5q0 31 13.5 52t37 34.5t53 22.5t60.5 16q43 10 64.5 17t28.5 15.5t7 21.5l1 -169q-14 -49 -46 -84.5t-94 -35.5zM201 87q19 3 37 22t30 47.5t12 59.5q-6 -7 -25 -13t-31 -11q-17 -6 -33 -17t-25.5 -25.5t-8.5 -32.5q2 -20 17.5 -25.5t26.5 -4.5z" />
    <glyph glyph-name="aring.ss01" horiz-adv-x="498" 
d="M380 -10q-39 0 -60 13t-29.5 31.5t-9.5 35.5t-1 24v185q0 11 -6 19t-17 12.5t-25 4.5q-15 0 -30.5 -6.5t-24.5 -22.5t-5 -45h-130q0 65 27.5 103.5t71.5 55t92 16.5q47 0 89.5 -15t69.5 -49t27 -91v-114q0 -11 0.5 -24t5 -22.5t15.5 -12t32 7.5v-75q0 1 -9.5 -7
t-29.5 -16t-53 -8zM141 -10q-56 0 -90.5 30.5t-34.5 79.5q0 31 13.5 52t37 34.5t53 22.5t60.5 16q43 10 64.5 17t28.5 15.5t7 21.5l1 -169q-14 -49 -46 -84.5t-94 -35.5zM201 87q19 3 37 22t30 47.5t12 59.5q-6 -7 -25 -13t-31 -11q-17 -6 -33 -17t-25.5 -25.5t-8.5 -32.5
q2 -20 17.5 -25.5t26.5 -4.5zM247 472q-56 0 -81.5 29t-25.5 77q0 50 25 79.5t82 29.5q56 0 83 -29.5t27 -79.5q0 -46 -27 -76t-83 -30zM245 552q17 0 24 8t7 21t-7 22t-23 9q-17 0 -24 -9.5t-7 -21.5q0 -13 7 -21t23 -8z" />
    <glyph glyph-name="atilde.ss01" horiz-adv-x="498" 
d="M380 -10q-39 0 -60 13t-29.5 31.5t-9.5 35.5t-1 24v185q0 11 -6 19t-17 12.5t-25 4.5q-15 0 -30.5 -6.5t-24.5 -22.5t-5 -45h-130q0 65 27.5 103.5t71.5 55t92 16.5q47 0 89.5 -15t69.5 -49t27 -91v-114q0 -11 0.5 -24t5 -22.5t15.5 -12t32 7.5v-75q0 1 -9.5 -7
t-29.5 -16t-53 -8zM141 -10q-56 0 -90.5 30.5t-34.5 79.5q0 31 13.5 52t37 34.5t53 22.5t60.5 16q43 10 64.5 17t28.5 15.5t7 21.5l1 -169q-14 -49 -46 -84.5t-94 -35.5zM201 87q19 3 37 22t30 47.5t12 59.5q-6 -7 -25 -13t-31 -11q-17 -6 -33 -17t-25.5 -25.5t-8.5 -32.5
q2 -20 17.5 -25.5t26.5 -4.5zM100 476q0 12 0.5 33.5t7.5 44t26 38.5t56 16q28 0 44.5 -9t26.5 -20t19 -20t21 -9q15 0 17.5 14.5t2.5 39.5h78q0 -19 -1.5 -41.5t-9.5 -43.5t-26.5 -34.5t-52.5 -13.5q-28 0 -44 9t-26 20t-18 20t-22 9q-16 0 -18.5 -13.5t-2.5 -39.5h-78z
" />
    <glyph glyph-name="f.ss01" horiz-adv-x="362" 
d="M321 237h-83v-237h-139v237h-73v106h295v-106zM180 338q-35 -1 -73.5 8.5t-65 35t-26.5 70.5q0 32 22.5 57t59.5 39.5t81 14.5q66 0 107 -25t60.5 -61t18.5 -69h-136q0 9 -2.5 16.5t-8.5 12.5t-15.5 8t-23.5 3q-18 0 -27 -7.5t-12.5 -16.5t-3.5 -13q0 -12 5 -24.5
t22.5 -23t55 -16.5t103.5 -4z" />
    <glyph glyph-name="g.ss01" 
d="M165 95q0 -13 12.5 -17t28.5 -3.5t26 0.5q36 0 75 -5t73 -20t55 -43t21 -73t-28.5 -74.5t-79 -44.5t-117.5 -15q-73 0 -122 14t-74 42.5t-25 69.5q0 26 13.5 50.5t40 40.5t66.5 16q-29 -1 -49.5 13.5t-20.5 33.5q0 17 14.5 28.5t37 17.5t45.5 6q-61 8 -91 45t-30 79
q0 73 52.5 117t145.5 44h51.5t40.5 3t16 13q0 14 -22.5 19t-56.5 -10l-18 89q41 14 77.5 7.5t60 -27.5t23.5 -49q0 -22 -11.5 -35t-26.5 -19.5t-26.5 -9t-12.5 -2.5q44 -13 73.5 -52.5t29.5 -87.5q0 -39 -21.5 -70.5t-66 -49.5t-113.5 -18q-4 0 -20 0.5t-31 -4t-15 -19.5z
M179 261q0 -17 3.5 -32t15 -24t35.5 -9q31 0 41.5 19t10.5 46q0 31 -11.5 51t-40.5 20q-21 0 -33 -9t-16.5 -25t-4.5 -37zM232 -97q25 0 45 3.5t32 14.5t12 33q0 14 -11 25t-31 16.5t-47 5.5q-24 0 -43.5 -5.5t-31 -15.5t-11.5 -26q0 -21 12.5 -32t32 -15t41.5 -4z" />
    <glyph glyph-name="gbreve.ss01" 
d="M165 95q0 -13 12.5 -17t28.5 -3.5t26 0.5q36 0 75 -5t73 -20t55 -43t21 -73t-28.5 -74.5t-79 -44.5t-117.5 -15q-73 0 -122 14t-74 42.5t-25 69.5q0 26 13.5 50.5t40 40.5t66.5 16q-29 -1 -49.5 13.5t-20.5 33.5q0 17 14.5 28.5t37 17.5t45.5 6q-61 8 -91 45t-30 79
q0 73 52.5 117t145.5 44h51.5t40.5 3t16 13q0 14 -22.5 19t-56.5 -10l-18 89q41 14 77.5 7.5t60 -27.5t23.5 -49q0 -22 -11.5 -35t-26.5 -19.5t-26.5 -9t-12.5 -2.5q44 -13 73.5 -52.5t29.5 -87.5q0 -39 -21.5 -70.5t-66 -49.5t-113.5 -18q-4 0 -20 0.5t-31 -4t-15 -19.5z
M179 261q0 -17 3.5 -32t15 -24t35.5 -9q31 0 41.5 19t10.5 46q0 31 -11.5 51t-40.5 20q-21 0 -33 -9t-16.5 -25t-4.5 -37zM232 -97q25 0 45 3.5t32 14.5t12 33q0 14 -11 25t-31 16.5t-47 5.5q-24 0 -43.5 -5.5t-31 -15.5t-11.5 -26q0 -21 12.5 -32t32 -15t41.5 -4zM217 564
q-70 0 -108.5 32t-38.5 87h97q0 -25 14 -35.5t36 -10.5q23 0 36 10t13 36h97q0 -55 -37.5 -87t-108.5 -32z" />
    <glyph glyph-name="uni0123.ss01" 
d="M165 95q0 -13 12.5 -17t28.5 -3.5t26 0.5q36 0 75 -5t73 -20t55 -43t21 -73t-28.5 -74.5t-79 -44.5t-117.5 -15q-73 0 -122 14t-74 42.5t-25 69.5q0 26 13.5 50.5t40 40.5t66.5 16q-29 -1 -49.5 13.5t-20.5 33.5q0 17 14.5 28.5t37 17.5t45.5 6q-61 8 -91 45t-30 79
q0 73 52.5 117t145.5 44h51.5t40.5 3t16 13q0 14 -22.5 19t-56.5 -10l-18 89q41 14 77.5 7.5t60 -27.5t23.5 -49q0 -22 -11.5 -35t-26.5 -19.5t-26.5 -9t-12.5 -2.5q44 -13 73.5 -52.5t29.5 -87.5q0 -39 -21.5 -70.5t-66 -49.5t-113.5 -18q-4 0 -20 0.5t-31 -4t-15 -19.5z
M179 261q0 -17 3.5 -32t15 -24t35.5 -9q31 0 41.5 19t10.5 46q0 31 -11.5 51t-40.5 20q-21 0 -33 -9t-16.5 -25t-4.5 -37zM232 -97q25 0 45 3.5t32 14.5t12 33q0 14 -11 25t-31 16.5t-47 5.5q-24 0 -43.5 -5.5t-31 -15.5t-11.5 -26q0 -21 12.5 -32t32 -15t41.5 -4zM241 562
h-62v17l39 97h115v-22z" />
    <glyph glyph-name="gdotaccent.ss01" 
d="M165 95q0 -13 12.5 -17t28.5 -3.5t26 0.5q36 0 75 -5t73 -20t55 -43t21 -73t-28.5 -74.5t-79 -44.5t-117.5 -15q-73 0 -122 14t-74 42.5t-25 69.5q0 26 13.5 50.5t40 40.5t66.5 16q-29 -1 -49.5 13.5t-20.5 33.5q0 17 14.5 28.5t37 17.5t45.5 6q-61 8 -91 45t-30 79
q0 73 52.5 117t145.5 44h51.5t40.5 3t16 13q0 14 -22.5 19t-56.5 -10l-18 89q41 14 77.5 7.5t60 -27.5t23.5 -49q0 -22 -11.5 -35t-26.5 -19.5t-26.5 -9t-12.5 -2.5q44 -13 73.5 -52.5t29.5 -87.5q0 -39 -21.5 -70.5t-66 -49.5t-113.5 -18q-4 0 -20 0.5t-31 -4t-15 -19.5z
M179 261q0 -17 3.5 -32t15 -24t35.5 -9q31 0 41.5 19t10.5 46q0 31 -11.5 51t-40.5 20q-21 0 -33 -9t-16.5 -25t-4.5 -37zM232 -97q25 0 45 3.5t32 14.5t12 33q0 14 -11 25t-31 16.5t-47 5.5q-24 0 -43.5 -5.5t-31 -15.5t-11.5 -26q0 -21 12.5 -32t32 -15t41.5 -4zM218 559
q-42 0 -56.5 21.5t-14.5 49.5q0 27 14.5 48t56.5 21t55.5 -21t13.5 -48q0 -28 -13.5 -49.5t-55.5 -21.5z" />
    <glyph glyph-name="lcaron.ss01" horiz-adv-x="226" 
d="M45 0v563h136v-563h-136zM233 389l27 174h130l-76 -174h-81z" />
    <glyph glyph-name="x.ss01" horiz-adv-x="390" 
d="M55 336l66 67l213 -212l-67 -67zM56 191l213 212l66 -67l-212 -212z" />
    <glyph glyph-name="f_f.dlig" horiz-adv-x="599" 
d="M69 0v459q0 74 35 102t95 28h96v-107h-87v-482h-139zM20 319v95h275v-95h-275zM359 0v459q0 74 35 102t95 28h96v-107h-87v-482h-139zM295 319v95h290v-95h-290z" />
    <glyph glyph-name="f_i.dlig" horiz-adv-x="540" 
d="M69 0v459q0 74 35 102t95 28h96v-107h-87v-482h-139zM20 319v95h343v-95h-343zM352 0v414h22h48.5h48.5h21v-414h-140z" />
    <glyph glyph-name="f_t.dlig" horiz-adv-x="614" 
d="M69 0v459q0 74 35 102t95 28h96v-107h-87v-482h-139zM20 319v95h275v-95h-275zM483 0q-60 0 -95 28t-35 102v202h130v-225h96v-107h-96zM295 319v95q18 0 32 3.5t24.5 14t16 31.5t5.5 56h110v-105h93v-95h-281z" />
    <glyph glyph-name="t_t.dlig" horiz-adv-x="643" 
d="M203 0q-60 0 -95 28t-35 102v202h130v-225h96v-107h-96zM15 319v95q18 0 32 3.5t24.5 14t16 31.5t5.5 56h110v-105h121v-95h-309zM512 0q-60 0 -95 28t-35 102v202h130v-225h96v-107h-96zM324 319v95q18 0 32 3.5t24.5 14t16 31.5t5.5 56h110v-105h93v-95h-281z" />
    <glyph glyph-name="zero.dnom" horiz-adv-x="273" 
d="M137 -14q-61 0 -91.5 38.5t-30.5 107.5q0 68 29 106.5t93 38.5q62 0 91.5 -38.5t29.5 -106.5q0 -67 -29.5 -106.5t-91.5 -39.5zM136 40q32 0 47 21.5t15 70.5q0 48 -15 69.5t-47 21.5q-31 0 -45.5 -20.5t-14.5 -70.5q0 -49 14.5 -70.5t45.5 -21.5z" />
    <glyph glyph-name="one.dnom" horiz-adv-x="194" 
d="M75 12v206q-4 -27 -17 -40.5t-26 -18.5t-17 -5v76q5 -1 20.5 -0.5t30 10.5t16.5 37h61v-265h-68zM28 0v59h151v-59h-151z" />
    <glyph glyph-name="two.dnom" horiz-adv-x="251" 
d="M15 0v56q11 4 35 15t50.5 27.5t45.5 37.5t19 46q0 20 -12 29t-29 9q-23 0 -36 -17.5t-6 -55.5l-63 9q-9 58 25.5 89.5t86.5 31.5q28 0 50.5 -11t36.5 -30t14 -44q0 -24 -13 -46.5t-35.5 -40.5t-49 -30t-53.5 -17h155v-58h-221z" />
    <glyph glyph-name="three.dnom" horiz-adv-x="254" 
d="M133 -14q-55 0 -87 26.5t-31 78.5l64 10q0 -26 14 -42t42 -16q20 0 31 11t11 26q0 11 -6 19.5t-16.5 13.5t-24.5 5h-25v34h27q15 0 29.5 8t14.5 24q0 17 -12.5 27.5t-34.5 10.5q-15 0 -26 -6.5t-17 -17.5t-6 -23l-59 10q0 8 4.5 22.5t16.5 31t33 27.5t53 11
q52 0 79.5 -22t27.5 -57q0 -22 -13.5 -42.5t-42.5 -22.5q28 -1 44 -21t16 -44q0 -37 -29.5 -59.5t-76.5 -22.5z" />
    <glyph glyph-name="four.dnom" horiz-adv-x="264" 
d="M15 50v58q36 15 58.5 44.5t33 63.5t10.5 61h75q0 -42 -28 -89t-82 -80h167v-58h-234zM150 0v138h68v-138h-68z" />
    <glyph glyph-name="five.dnom" horiz-adv-x="252" 
d="M126 -14q-37 0 -61 13t-36 32.5t-14 37.5l67 10q1 -5 6 -14t15 -16t25 -7q19 0 29.5 12t12.5 27q2 17 -8.5 31.5t-33.5 14.5q-13 0 -20.5 -5.5t-11 -10.5t-3.5 -6l-71 11l15 147h187v-58h-141l-8 -73l7 10t23.5 19.5t42.5 9.5q48 0 70 -28t19 -63t-32.5 -64.5
t-78.5 -29.5z" />
    <glyph glyph-name="six.dnom" horiz-adv-x="258" 
d="M132 -14q-39 0 -65 19t-39 52t-13 74q0 39 14.5 72t42 53.5t65.5 20.5q34 0 54 -11t30.5 -25t14 -25l3.5 -11l-66 -12l-3 7t-11.5 13.5t-25.5 6.5q-7 0 -21 -7t-25 -27.5t-8 -63.5q0 1 6.5 12.5t23 23t44.5 11.5q45 0 67.5 -25.5t22.5 -57.5q0 -37 -27.5 -68.5
t-83.5 -31.5zM137 41q23 0 33.5 15t10.5 31q0 18 -11 31.5t-32 13.5t-36 -16.5t-15 -38.5q4 -19 19.5 -27.5t30.5 -8.5z" />
    <glyph glyph-name="seven.dnom" horiz-adv-x="255" 
d="M61 0q0 85 30.5 136t86.5 67h-163v60h225v-59q-15 -5 -34 -16t-36.5 -33t-29 -59.5t-11.5 -95.5h-68z" />
    <glyph glyph-name="eight.dnom" horiz-adv-x="268" 
d="M133 -14q-50 0 -84 21.5t-34 61.5q0 28 18.5 48t51.5 27q-24 2 -35.5 13t-15.5 24t-4 20q0 35 28.5 55.5t74.5 20.5q48 0 76 -20.5t28 -55.5q0 -7 -3.5 -20t-15 -24t-36.5 -13q34 -7 52.5 -26.5t18.5 -48.5q0 -40 -34.5 -61.5t-85.5 -21.5zM134 39q25 0 39.5 11.5
t14.5 30.5q0 23 -14.5 33t-39.5 10t-40 -10t-15 -33q0 -19 15 -30.5t40 -11.5zM133 156q22 0 34 9t12 24q0 19 -12.5 27t-33.5 8q-20 0 -32 -8t-12 -27q0 -15 12 -24t32 -9z" />
    <glyph glyph-name="nine.dnom" horiz-adv-x="259" 
d="M121 -14q-34 0 -54 11t-30.5 25t-14 25l-3.5 11l66 12l3 -6.5t11.5 -13.5t25.5 -7q7 0 21 7t25 28t8 63l-6.5 -12t-22.5 -23.5t-45 -11.5q-45 0 -67.5 26t-22.5 57q0 37 28 68.5t83 31.5q39 0 65 -19t39 -52t13 -74q0 -39 -14.5 -72.5t-41.5 -53.5t-66 -20zM120 131
q21 0 36 16.5t15 38.5q-4 19 -19.5 27.5t-30.5 8.5q-22 0 -33 -15t-11 -31q0 -18 11 -31.5t32 -13.5z" />
    <glyph glyph-name="zero.numr" horiz-adv-x="273" 
d="M137 282q-61 0 -91.5 38.5t-30.5 107.5q0 68 29 106.5t93 38.5q62 0 91.5 -38.5t29.5 -106.5q0 -67 -29.5 -106.5t-91.5 -39.5zM136 336q32 0 47 21.5t15 70.5q0 48 -15 69.5t-47 21.5q-31 0 -45.5 -20.5t-14.5 -70.5q0 -49 14.5 -70.5t45.5 -21.5z" />
    <glyph glyph-name="one.numr" horiz-adv-x="194" 
d="M75 308v206q-4 -27 -17 -40.5t-26 -18.5t-17 -5v76q5 -1 20.5 -0.5t30 10.5t16.5 37h61v-265h-68zM28 296v59h151v-59h-151z" />
    <glyph glyph-name="two.numr" horiz-adv-x="251" 
d="M15 296v56q11 4 35 15t50.5 27.5t45.5 37.5t19 46q0 20 -12 29t-29 9q-23 0 -36 -17.5t-6 -55.5l-63 9q-9 58 25.5 89.5t86.5 31.5q28 0 50.5 -11t36.5 -30t14 -44q0 -24 -13 -46.5t-35.5 -40.5t-49 -30t-53.5 -17h155v-58h-221z" />
    <glyph glyph-name="three.numr" horiz-adv-x="254" 
d="M133 282q-55 0 -87 26.5t-31 78.5l64 10q0 -26 14 -42t42 -16q20 0 31 11t11 26q0 11 -6 19.5t-16.5 13.5t-24.5 5h-25v34h27q15 0 29.5 8t14.5 24q0 17 -12.5 27.5t-34.5 10.5q-15 0 -26 -6.5t-17 -17.5t-6 -23l-59 10q0 8 4.5 22.5t16.5 31t33 27.5t53 11
q52 0 79.5 -22t27.5 -57q0 -22 -13.5 -42.5t-42.5 -22.5q28 -1 44 -21t16 -44q0 -37 -29.5 -59.5t-76.5 -22.5z" />
    <glyph glyph-name="four.numr" horiz-adv-x="264" 
d="M15 346v58q36 15 58.5 44.5t33 63.5t10.5 61h75q0 -42 -28 -89t-82 -80h167v-58h-234zM150 296v138h68v-138h-68z" />
    <glyph glyph-name="five.numr" horiz-adv-x="252" 
d="M126 282q-37 0 -61 13t-36 32.5t-14 37.5l67 10q1 -5 6 -14t15 -16t25 -7q19 0 29.5 12t12.5 27q2 17 -8.5 31.5t-33.5 14.5q-13 0 -20.5 -5.5t-11 -10.5t-3.5 -6l-71 11l15 147h187v-58h-141l-8 -73l7 10t23.5 19.5t42.5 9.5q48 0 70 -28t19 -63t-32.5 -64.5
t-78.5 -29.5z" />
    <glyph glyph-name="six.numr" horiz-adv-x="258" 
d="M132 282q-39 0 -65 19t-39 52t-13 74q0 39 14.5 72t42 53.5t65.5 20.5q34 0 54 -11t30.5 -25t14 -25l3.5 -11l-66 -12l-3 7t-11.5 13.5t-25.5 6.5q-7 0 -21 -7t-25 -27.5t-8 -63.5q0 1 6.5 12.5t23 23t44.5 11.5q45 0 67.5 -25.5t22.5 -57.5q0 -37 -27.5 -68.5
t-83.5 -31.5zM137 337q23 0 33.5 15t10.5 31q0 18 -11 31.5t-32 13.5t-36 -16.5t-15 -38.5q4 -19 19.5 -27.5t30.5 -8.5z" />
    <glyph glyph-name="seven.numr" horiz-adv-x="255" 
d="M61 296q0 85 30.5 136t86.5 67h-163v60h225v-59q-15 -5 -34 -16t-36.5 -33t-29 -59.5t-11.5 -95.5h-68z" />
    <glyph glyph-name="eight.numr" horiz-adv-x="268" 
d="M133 282q-50 0 -84 21.5t-34 61.5q0 28 18.5 48t51.5 27q-24 2 -35.5 13t-15.5 24t-4 20q0 35 28.5 55.5t74.5 20.5q48 0 76 -20.5t28 -55.5q0 -7 -3.5 -20t-15 -24t-36.5 -13q34 -7 52.5 -26.5t18.5 -48.5q0 -40 -34.5 -61.5t-85.5 -21.5zM134 335q25 0 39.5 11.5
t14.5 30.5q0 23 -14.5 33t-39.5 10t-40 -10t-15 -33q0 -19 15 -30.5t40 -11.5zM133 452q22 0 34 9t12 24q0 19 -12.5 27t-33.5 8q-20 0 -32 -8t-12 -27q0 -15 12 -24t32 -9z" />
    <glyph glyph-name="nine.numr" horiz-adv-x="259" 
d="M121 282q-34 0 -54 11t-30.5 25t-14 25l-3.5 11l66 12l3 -6.5t11.5 -13.5t25.5 -7q7 0 21 7t25 28t8 63l-6.5 -12t-22.5 -23.5t-45 -11.5q-45 0 -67.5 26t-22.5 57q0 37 28 68.5t83 31.5q39 0 65 -19t39 -52t13 -74q0 -39 -14.5 -72.5t-41.5 -53.5t-66 -20zM120 427
q21 0 36 16.5t15 38.5q-4 19 -19.5 27.5t-30.5 8.5q-22 0 -33 -15t-11 -31q0 -18 11 -31.5t32 -13.5z" />
    <glyph glyph-name="zero.subs" horiz-adv-x="273" 
d="M137 -152q-61 0 -91.5 38.5t-30.5 107.5q0 68 29 106.5t93 38.5q62 0 91.5 -38.5t29.5 -106.5q0 -67 -29.5 -106.5t-91.5 -39.5zM136 -98q32 0 47 21.5t15 70.5q0 48 -15 69.5t-47 21.5q-31 0 -45.5 -20.5t-14.5 -70.5q0 -49 14.5 -70.5t45.5 -21.5z" />
    <glyph glyph-name="one.subs" horiz-adv-x="194" 
d="M75 -127v206q-4 -27 -17 -40.5t-26 -18.5t-17 -5v76q5 -1 20.5 -0.5t30 10.5t16.5 37h61v-265h-68zM28 -139v59h151v-59h-151z" />
    <glyph glyph-name="two.subs" horiz-adv-x="251" 
d="M15 -139v56q11 4 35 15t50.5 27.5t45.5 37.5t19 46q0 20 -12 29t-29 9q-23 0 -36 -17.5t-6 -55.5l-63 9q-9 58 25.5 89.5t86.5 31.5q28 0 50.5 -11t36.5 -30t14 -44q0 -24 -13 -46.5t-35.5 -40.5t-49 -30t-53.5 -17h155v-58h-221z" />
    <glyph glyph-name="three.subs" horiz-adv-x="254" 
d="M133 -153q-55 0 -87 26.5t-31 78.5l64 10q0 -26 14 -42t42 -16q20 0 31 11t11 26q0 11 -6 19.5t-16.5 13.5t-24.5 5h-25v34h27q15 0 29.5 8t14.5 24q0 17 -12.5 27.5t-34.5 10.5q-15 0 -26 -6.5t-17 -17.5t-6 -23l-59 10q0 8 4.5 22.5t16.5 31t33 27.5t53 11
q52 0 79.5 -22t27.5 -57q0 -22 -13.5 -42.5t-42.5 -22.5q28 -1 44 -21t16 -44q0 -37 -29.5 -59.5t-76.5 -22.5z" />
    <glyph glyph-name="four.subs" horiz-adv-x="264" 
d="M15 -89v58q36 15 58.5 44.5t33 63.5t10.5 61h75q0 -42 -28 -89t-82 -80h167v-58h-234zM150 -139v138h68v-138h-68z" />
    <glyph glyph-name="five.subs" horiz-adv-x="252" 
d="M126 -151q-37 0 -61 13t-36 32.5t-14 37.5l67 10q1 -5 6 -14t15 -16t25 -7q19 0 29.5 12t12.5 27q2 17 -8.5 31.5t-33.5 14.5q-13 0 -20.5 -5.5t-11 -10.5t-3.5 -6l-71 11l15 147h187v-58h-141l-8 -73l7 10t23.5 19.5t42.5 9.5q48 0 70 -28t19 -63t-32.5 -64.5
t-78.5 -29.5z" />
    <glyph glyph-name="six.subs" horiz-adv-x="258" 
d="M132 -153q-39 0 -65 19t-39 52t-13 74q0 39 14.5 72t42 53.5t65.5 20.5q34 0 54 -11t30.5 -25t14 -25l3.5 -11l-66 -12l-3 7t-11.5 13.5t-25.5 6.5q-7 0 -21 -7t-25 -27.5t-8 -63.5q0 1 6.5 12.5t23 23t44.5 11.5q45 0 67.5 -25.5t22.5 -57.5q0 -37 -27.5 -68.5
t-83.5 -31.5zM137 -98q23 0 33.5 15t10.5 31q0 18 -11 31.5t-32 13.5t-36 -16.5t-15 -38.5q4 -19 19.5 -27.5t30.5 -8.5z" />
    <glyph glyph-name="seven.subs" horiz-adv-x="255" 
d="M61 -139q0 85 30.5 136t86.5 67h-163v60h225v-59q-15 -5 -34 -16t-36.5 -33t-29 -59.5t-11.5 -95.5h-68z" />
    <glyph glyph-name="eight.subs" horiz-adv-x="268" 
d="M133 -153q-50 0 -84 21.5t-34 61.5q0 28 18.5 48t51.5 27q-24 2 -35.5 13t-15.5 24t-4 20q0 35 28.5 55.5t74.5 20.5q48 0 76 -20.5t28 -55.5q0 -7 -3.5 -20t-15 -24t-36.5 -13q34 -7 52.5 -26.5t18.5 -48.5q0 -40 -34.5 -61.5t-85.5 -21.5zM134 -100q25 0 39.5 11.5
t14.5 30.5q0 23 -14.5 33t-39.5 10t-40 -10t-15 -33q0 -19 15 -30.5t40 -11.5zM133 17q22 0 34 9t12 24q0 19 -12.5 27t-33.5 8q-20 0 -32 -8t-12 -27q0 -15 12 -24t32 -9z" />
    <glyph glyph-name="nine.subs" horiz-adv-x="259" 
d="M121 -153q-34 0 -54 11t-30.5 25t-14 25l-3.5 11l66 12l3 -6.5t11.5 -13.5t25.5 -7q7 0 21 7t25 28t8 63l-6.5 -12t-22.5 -23.5t-45 -11.5q-45 0 -67.5 26t-22.5 57q0 37 28 68.5t83 31.5q39 0 65 -19t39 -52t13 -74q0 -39 -14.5 -72.5t-41.5 -53.5t-66 -20zM120 -8
q21 0 36 16.5t15 38.5q-4 19 -19.5 27.5t-30.5 8.5q-22 0 -33 -15t-11 -31q0 -18 11 -31.5t32 -13.5z" />
    <glyph glyph-name="zero.sups" horiz-adv-x="273" 
d="M137 400q-61 0 -91.5 37.5t-30.5 101.5q0 62 29 100t93 38q62 0 91.5 -37.5t29.5 -100.5q0 -61 -29.5 -100t-91.5 -39zM136 454q32 0 47 21t15 64t-15 63.5t-47 20.5q-31 0 -45.5 -20t-14.5 -64q0 -43 14.5 -64t45.5 -21z" />
    <glyph glyph-name="five.sups" horiz-adv-x="252" 
d="M126 404q-37 0 -61 13.5t-36 32.5t-14 37l67 10q1 -5 6 -14t15 -16t25 -7q19 0 29.5 12t12.5 27q2 17 -8.5 31.5t-33.5 14.5q-13 0 -20.5 -5.5t-11 -10.5t-3.5 -6l-71 11l15 147h187v-58h-141l-8 -73l7 10t23.5 19.5t42.5 9.5q48 0 70 -28t19 -63t-32.5 -64.5
t-78.5 -29.5z" />
    <glyph glyph-name="six.sups" horiz-adv-x="258" 
d="M132 404q-58 0 -87.5 40t-29.5 98q0 37 14.5 68.5t42 51t65.5 19.5q34 0 54 -10.5t30.5 -24t14 -24l3.5 -10.5l-66 -11l-3 6t-11.5 11.5t-25.5 5.5q-7 0 -21 -6t-25 -25t-8 -60q0 1 6.5 12t23 22.5t44.5 10.5q38 0 60 -17.5t28 -43.5t-4.5 -52t-36.5 -43.5t-68 -17.5z
M137 459q22 0 33 12t11 28t-10.5 28t-32.5 13q-21 0 -36 -14.5t-15 -34.5q4 -18 19.5 -25t30.5 -7z" />
    <glyph glyph-name="seven.sups" horiz-adv-x="255" 
d="M41 414q0 57 18.5 101.5t50 74.5t68.5 41h-163v60h225v-59q-15 -5 -37 -18.5t-43.5 -38t-36 -64t-14.5 -97.5h-68z" />
    <glyph glyph-name="eight.sups" horiz-adv-x="268" 
d="M133 403q-50 0 -84 21t-34 58q0 26 18.5 45t51.5 23q-24 3 -35.5 14.5t-15.5 24t-4 19.5q0 33 28.5 52.5t74.5 19.5q48 0 76 -20t28 -52q0 -7 -3.5 -19.5t-15 -24t-36.5 -14.5q34 -4 52.5 -22t18.5 -46q0 -38 -34.5 -58.5t-85.5 -20.5zM134 453q25 0 39.5 11t14.5 29
q0 22 -14.5 31.5t-39.5 9.5t-40 -9.5t-15 -31.5q0 -18 15 -29t40 -11zM133 565q22 0 34 8.5t12 22.5q0 18 -12.5 26t-33.5 8q-20 0 -32 -8t-12 -26q0 -14 12 -22.5t32 -8.5z" />
    <glyph glyph-name="nine.sups" horiz-adv-x="259" 
d="M125 404q-35 0 -56.5 10.5t-32.5 24t-14.5 24l-3.5 10.5l66 13l3 -5.5t12 -11.5t26 -6q8 0 21 5.5t23 24.5t9 59l-6.5 -11.5t-22.5 -23t-45 -11.5q-38 0 -60 17.5t-27.5 44t5 52.5t36.5 43.5t67 17.5q44 0 70 -19.5t37.5 -50.5t11.5 -66q0 -37 -12 -69t-38 -52t-69 -20z
M120 544q23 0 36.5 14t13.5 35q-4 20 -17.5 27.5t-27.5 7.5q-17 0 -27.5 -8.5t-15 -20.5t-1.5 -24.5t12.5 -21t26.5 -9.5z" />
    <glyph glyph-name="hyphen_greater.dlig" horiz-adv-x="544" 
d="M509 177q-59 0 -96.5 20.5t-58 50.5t-29.5 60t-11 50.5t-2 21.5h82q0 -1 2 -16t12.5 -34t34 -33t66.5 -14v-106zM35 177v106h474v-106h-474zM312 80l2 20.5t11 51t29.5 60.5t58 50.5t96.5 20.5v-106q-43 0 -66.5 -14t-34 -33t-12.5 -33.5t-2 -16.5h-82z" />
    <glyph glyph-name="parenleft_greater.dlig" horiz-adv-x="657" 
d="M329 -14q-61 0 -114.5 23t-93.5 63t-63 93.5t-23 114.5q0 60 23 113t63 93.5t93.5 63.5t114.5 23q60 0 113 -23t93.5 -63.5t63.5 -93.5t23 -113q0 -61 -23 -114.5t-63.5 -93.5t-93.5 -63t-113 -23zM329 50q47 0 89 18t73.5 49.5t49.5 73t18 88.5t-18 89t-49.5 73.5
t-73.5 49.5t-89 18t-89 -18t-73.5 -49.5t-49.5 -73.5t-18 -89t18 -88.5t49.5 -73t73.5 -49.5t89 -18zM317 245l51 34l-51 32v-66zM257 142v268l202 -130z" />
    <glyph glyph-name="colon_parenleft.dlig" horiz-adv-x="657" 
d="M329 -14q-61 0 -114.5 23t-93.5 63t-63 93.5t-23 114.5q0 60 23 113t63 93.5t93.5 63.5t114.5 23q60 0 113 -23t93.5 -63.5t63.5 -93.5t23 -113q0 -61 -23 -114.5t-63.5 -93.5t-93.5 -63t-113 -23zM182 128q4 65 43 106.5t105 41.5q44 0 76 -19.5t51 -53t21 -75.5h-85v13
t-5.5 29.5t-18.5 29.5t-39 13q-28 0 -41.5 -13t-18 -29.5t-4 -29.5l0.5 -13h-85zM187 299v88h80v-88h-80zM329 50q47 0 89 18t73.5 49.5t49.5 73t18 88.5t-18 89t-49.5 73.5t-73.5 49.5t-89 18t-89 -18t-73.5 -49.5t-49.5 -73.5t-18 -89t18 -88.5t49.5 -73t73.5 -49.5
t89 -18zM392 299v88h80v-88h-80z" />
    <glyph glyph-name="colon_parenright.dlig" horiz-adv-x="657" 
d="M329 -14q-61 0 -114.5 23t-93.5 63t-63 93.5t-23 114.5q0 60 23 113t63 93.5t93.5 63.5t114.5 23q60 0 113 -23t93.5 -63.5t63.5 -93.5t23 -113q0 -61 -23 -114.5t-63.5 -93.5t-93.5 -63t-113 -23zM330 111q-43 0 -75.5 19.5t-51 53.5t-21.5 75h85v-8.5t2.5 -21t9 -25.5
t19 -21.5t32.5 -8.5q23 0 36 8.5t19 21t7.5 25.5t1 21.5l-0.5 8.5h85q-2 -43 -20.5 -76.5t-51 -52.5t-76.5 -19zM187 299v88h80v-88h-80zM329 50q47 0 89 18t73.5 49.5t49.5 73t18 88.5t-18 89t-49.5 73.5t-73.5 49.5t-89 18t-89 -18t-73.5 -49.5t-49.5 -73.5t-18 -89
t18 -88.5t49.5 -73t73.5 -49.5t89 -18zM392 299v88h80v-88h-80z" />
    <glyph glyph-name="periodcentered.case" horiz-adv-x="280" 
d="M136 214q-54 0 -72.5 27t-18.5 64q0 35 18.5 62t72.5 27t71.5 -27t17.5 -62q0 -37 -17.5 -64t-71.5 -27z" />
    <glyph glyph-name="bullet.case" horiz-adv-x="300" 
d="M136 214q-54 0 -72.5 27t-18.5 64q0 35 18.5 62t72.5 27t71.5 -27t17.5 -62q0 -37 -17.5 -64t-71.5 -27z" />
    <glyph glyph-name="hyphen.case" horiz-adv-x="317" 
d="M40 223v94h222v-94h-222z" />
    <glyph glyph-name="endash.case" horiz-adv-x="437" 
d="M40 223v94h342v-94h-342z" />
    <glyph glyph-name="emdash.case" horiz-adv-x="617" 
d="M40 223v94h522v-94h-522z" />
    <glyph glyph-name="parenleft.case" horiz-adv-x="363" 
d="M233 -139l-19.5 16t-48 48t-57.5 80t-48.5 111.5t-19.5 143.5t19.5 144.5t48.5 113t57.5 80.5t48 48.5l19.5 16.5l110 -108q-4 -3 -26.5 -16t-53.5 -36t-61.5 -57.5t-50.5 -80.5t-20 -105q0 -60 21.5 -107t53 -81t63 -56.5t53 -33.5l21.5 -11z" />
    <glyph glyph-name="parenright.case" horiz-adv-x="353" 
d="M120 -139l-110 110l21.5 11t53 33.5t63 56.5t53 81t21.5 107q0 58 -20 104.5t-50.5 81t-61.5 57.5t-53.5 36t-26.5 16l110 108l19.5 -16.5t48.5 -48.5t57.5 -80.5t48 -113t19.5 -144.5t-19.5 -143.5t-48 -111.5t-57.5 -80t-48.5 -48z" />
    <glyph glyph-name="braceleft.case" horiz-adv-x="392" 
d="M362 -136q-87 -19 -142 -12.5t-83 36.5t-33 83t9 127q6 37 -1.5 57.5t-22.5 29t-31.5 10.5t-27.5 2v134q11 0 27.5 2t31.5 10.5t22.5 29t1.5 57.5q-13 74 -8.5 125t32.5 79.5t83 35.5t142 -7v-130q-55 12 -80.5 6.5t-32.5 -22.5t-3.5 -39.5t6.5 -45.5q8 -48 0.5 -84
t-35.5 -57.5t-82 -27.5q54 -6 82 -27t35.5 -56.5t-0.5 -83.5q-3 -23 -6.5 -46t3.5 -40t32.5 -22.5t80.5 6.5v-130z" />
    <glyph glyph-name="braceright.case" horiz-adv-x="402" 
d="M40 -136v130q55 -12 80.5 -6.5t32.5 22.5t3.5 40t-6.5 46q-8 48 -0.5 83.5t35.5 56.5t82 27q-54 6 -82 27.5t-35 57.5t0 84q3 23 6.5 45.5t-3.5 39.5t-32.5 22.5t-80.5 -6.5v130q99 6 155.5 -2t81 -34.5t25.5 -74.5t-13 -122q-6 -37 1.5 -57.5t22.5 -29t31.5 -10.5
t27.5 -2v-134q-11 0 -27.5 -2t-31.5 -10.5t-22.5 -29t-1.5 -57.5q14 -74 13.5 -122.5t-25 -75t-81.5 -34.5t-156 -2z" />
    <glyph glyph-name="bracketleft.case" horiz-adv-x="326" 
d="M35 -139v802h271v-130h-131v-542h131v-130h-271z" />
    <glyph glyph-name="bracketright.case" horiz-adv-x="326" 
d="M35 -139v130h131v542h-131v130h271v-802h-271z" />
    </font>
</defs>
</svg>
